Бельканто - Теноры эпохи грампластинок / Belcanto - Tenors of the 78 Era (Caruso, Gigli, Schipa, Tauber, Slezak, Schmidt, Melchior, Rosvaenge, Bjorling, McCormack, Thill) (Jan Schmidt-Garre) [1997, Vocal, DVDRip-AVC] [Rus (Elena-Rybka)]


 

[Цитировать]

-»«Б Е Л Ь К А Н Т О»«
— ТЕНОРЫ ЭПОХИ ГРАМПЛАСТИНОК —

Энрико КАРУЗО • Беньямино ДЖИЛЬИ • Тито СКИПА • Рихард ТАУБЕР • Лео СЛЕЗАК
Йозеф ШМИДТ • Лоуренс МЕЛЬХИОР • Хельге РОСВЕНГЕ
Юсси БЬЁРЛИНГ • Джон МакКОРМАК • Жорж ТИЛЬ • Иван КОЗЛОВСКИЙ
-- Год записи: 1997
Год выпуска: 2005
Лейбл: SRF, ORF & DG
Страна: Germany
Жанр: Classical Vocal / Documentary
Продолжительность: 367 мин. (6 часов)
Язык: Original
Английский/Немецкий/Французский/Итальянский
Авторский перевод: © Elena-Rybka
Субтитры/Subtitls: РУССКИЕ,
English, German, French, Italiano, Spanish
в составе контейнера

•••
Двухсерийный фильм о певцах бельканто,
снятый в формате чёрно-белого звукового кино,
включает 13 эпизодов, каждый из которых
имеет биографическую и музыкальную составляющие.
Многие из материалов показаны впервые.
Рассказ о каждом из артистов самостоятелен,
а их выдающийся талант продемонстрирован
граммофонными записями.

•••
Режиссёр: ЯН ШМИДТ-ГАРРЕ
Jan Schmidt-Garre
-

Тех. данные и скриншоты


Качество видео: DVDRip-AVC
Исходник:
Формат/Контейнер: MKV
Видео кодек: H.264
Аудио кодек: AC3
Видео поток:
Part1: 696@742x572, 1360 kbps, 25,000 fps.
Part2: 692@738x572, 1514 kbps, 25,000 fps.
Аудио поток: 192 kbps, 48,0 KHz, 2 ch
(оригинальный)

MediaInfoPart1


-

x264 .log


avs [info]: 696x572p 16:15 @ 25/1 fps (cfr)
x264 [info]: using SAR=16/15
x264 [info]: using cpu capabilities: MMX2 SSE2Fast SSEMisalign LZCNT
x264 [info]: profile High, level 4.1
x264 [info]: frame I:1331 Avg QP:19.33 size: 50475
x264 [info]: frame P:54822 Avg QP:22.36 size: 17805
x264 [info]: frame B:198405 Avg QP:26.97 size: 3467
x264 [info]: consecutive B-frames: 2.3% 0.6% 5.2% 19.9% 23.2% 48.9%
x264 [info]: mb I I16..4: 6.2% 69.3% 24.4%
x264 [info]: mb P I16..4: 0.2% 3.9% 0.9% P16..4: 35.3% 37.4% 11.8% 1.8% 0.2% skip: 8.6%
x264 [info]: mb B I16..4: 0.0% 0.4% 0.1% B16..8: 37.5% 12.9% 1.5% direct: 3.4% skip:44.2% L0:40.3% L1:46.8% BI:12.9%
x264 [info]: 8x8 transform intra:77.1% inter:56.5%
x264 [info]: coded y,uvDC,uvAC intra: 93.7% 24.5% 4.4% inter: 18.7% 6.5% 0.2%
x264 [info]: i16 v,h,dc,p: 28% 18% 2% 52%
x264 [info]: i8 v,h,dc,ddl,ddr,vr,hd,vl,hu: 11% 8% 3% 10% 15% 15% 13% 13% 11%
x264 [info]: i4 v,h,dc,ddl,ddr,vr,hd,vl,hu: 13% 8% 3% 9% 15% 15% 13% 12% 12%
x264 [info]: i8c dc,h,v,p: 35% 48% 13% 4%
x264 [info]: Weighted P-Frames: Y:21.0% UV:0.8%
x264 [info]: ref P L0: 42.3% 13.3% 22.9% 8.7% 9.4% 3.3% 0.2%
x264 [info]: ref B L0: 83.8% 11.8% 3.0% 1.4%
x264 [info]: ref B L1: 96.4% 3.6%
x264 [info]: kb/s:1360.19
-
General
Unique ID : 177348372638828565776439511938704544657 (0x856C0DDC782CD37F87E8A87B3F471391)
Complete name : Belcanto\Belcanto Part1.mkv
Format : Matroska
Format version : Version 4 / Version 2
File size : 1.84 GiB
Duration : 2h 49mn
Overall bit rate : 1 554 Kbps
Encoded date : UTC 2015-02-02 18:12:39
Writing application : mkvmerge v7.5.0 ('Glass Culture') 32bit built on Jan 4 2015 16:37:25
Writing library : libebml v1.3.1 + libmatroska v1.4.2
_STATISTICS_WRITING_APP : mkvmerge v7.5.0 ('Glass Culture') 32bit built on Jan 4 2015 16:37:25
_STATISTICS_WRITING_DATE_UTC : 2015-02-02 18:12:39
_STATISTICS_TAGS : BPS DURATION NUMBER_OF_FRAMES NUMBER_OF_BYTES
DURATION : 02:47:27.366000000
NUMBER_OF_FRAMES : 1067
NUMBER_OF_BYTES : 52137
Video
ID : 1
Format : AVC
Format/Info : Advanced Video Codec
Format profile : High@L4.1
Format settings, CABAC : Yes
Format settings, ReFrames : 5 frames
Codec ID : V_MPEG4/ISO/AVC
Duration : 2h 49mn
Bit rate : 1 331 Kbps
Width : 696 pixels
Height : 572 pixels
Display aspect ratio : 1.297
Original display aspect ratio : 1.298
Frame rate mode : Constant
Frame rate : 25.000 fps
Color space : YUV
Chroma subsampling : 4:2:0
Bit depth : 8 bits
Scan type : Progressive
Bits/(Pixel*Frame) : 0.134
Stream size : 1.58 GiB (86%)
Writing library : x264 core 130 r2273 b3065e6
Encoding settings : cabac=1 / ref=5 / deblock=1:-3:-3 / analyse=0x3:0x133 / me=umh / subme=11 / psy=1 / psy_rd=1.05:0.10 / mixed_ref=1 / me_range=32 / chroma_me=1 / trellis=2 / 8x8dct=1 / cqm=0 / deadzone=21,11 / fast_pskip=1 / chroma_qp_offset=-3 / threads=4 / lookahead_threads=1 / sliced_threads=0 / nr=0 / decimate=1 / interlaced=0 / bluray_compat=0 / constrained_intra=0 / bframes=5 / b_pyramid=2 / b_adapt=2 / b_bias=0 / direct=1 / weightb=1 / open_gop=0 / weightp=2 / keyint=250 / keyint_min=25 / scenecut=40 / intra_refresh=0 / rc_lookahead=60 / rc=crf / mbtree=1 / crf=21.0 / qcomp=0.65 / qpmin=0 / qpmax=69 / qpstep=4 / ip_ratio=1.40 / aq=1:0.90
Language : English
Default : Yes
Forced : No
_STATISTICS_WRITING_APP : mkvmerge v7.5.0 ('Glass Culture') 32bit built on Jan 4 2015 16:37:25
_STATISTICS_WRITING_DATE_UTC : 2015-02-02 18:12:39
_STATISTICS_TAGS : BPS DURATION NUMBER_OF_FRAMES NUMBER_OF_BYTES
DURATION : 02:49:42.344000000
NUMBER_OF_FRAMES : 254558
NUMBER_OF_BYTES : 1731241190
Audio
ID : 2
Format : AC-3
Format/Info : Audio Coding 3
Mode extension : CM (complete main)
Format settings, Endianness : Big
Codec ID : A_AC3
Duration : 2h 49mn
Bit rate mode : Constant
Bit rate : 192 Kbps
Channel(s) : 2 channels
Channel positions : Front: L R
Sampling rate : 48.0 KHz
Bit depth : 16 bits
Compression mode : Lossy
Stream size : 233 MiB (12%)
Default : Yes
Forced : No
Text #1
ID : 3
Format : ASS
Codec ID : S_TEXT/ASS
Codec ID/Info : Advanced Sub Station Alpha
Compression mode : Lossless
Language : Russian
Default : Yes
Forced : No
Text #2
ID : 4
Format : UTF-8
Codec ID : S_TEXT/UTF8
Codec ID/Info : UTF-8 Plain Text
Language : English
Default : No
Forced : No
Text #3
ID : 5
Format : UTF-8
Codec ID : S_TEXT/UTF8
Codec ID/Info : UTF-8 Plain Text
Language : French
Default : No
Forced : No
Text #4
ID : 6
Format : UTF-8
Codec ID : S_TEXT/UTF8
Codec ID/Info : UTF-8 Plain Text
Language : German
Default : No
Forced : No
Text #5
ID : 7
Format : UTF-8
Codec ID : S_TEXT/UTF8
Codec ID/Info : UTF-8 Plain Text
Language : Italian
Default : No
Forced : No
Text #6
ID : 8
Format : UTF-8
Codec ID : S_TEXT/UTF8
Codec ID/Info : UTF-8 Plain Text
Language : Spanish
Default : No
Forced : No

Part2


-

x264 .log


avs [info]: 692x572p 16:15 @ 25/1 fps (cfr)
x264 [info]: using SAR=16/15
x264 [info]: using cpu capabilities: MMX2 SSE2Fast SSEMisalign LZCNT
x264 [info]: profile High, level 4.1
x264 [info]: frame I:1529 Avg QP:19.31 size: 49675
x264 [info]: frame P:63663 Avg QP:22.47 size: 18898
x264 [info]: frame B:234352 Avg QP:26.82 size: 4218
x264 [info]: consecutive B-frames: 1.9% 0.6% 5.2% 19.7% 24.0% 48.6%
x264 [info]: mb I I16..4: 6.5% 72.9% 20.6%
x264 [info]: mb P I16..4: 0.2% 4.9% 1.1% P16..4: 35.0% 37.3% 11.9% 1.4% 0.2% skip: 8.1%
x264 [info]: mb B I16..4: 0.0% 0.7% 0.1% B16..8: 39.1% 13.7% 1.6% direct: 3.6% skip:41.1% L0:40.9% L1:46.1% BI:13.0%
x264 [info]: 8x8 transform intra:78.6% inter:63.8%
x264 [info]: coded y,uvDC,uvAC intra: 91.4% 29.7% 4.0% inter: 20.1% 8.0% 0.4%
x264 [info]: i16 v,h,dc,p: 23% 24% 2% 50%
x264 [info]: i8 v,h,dc,ddl,ddr,vr,hd,vl,hu: 10% 10% 4% 10% 15% 14% 13% 12% 11%
x264 [info]: i4 v,h,dc,ddl,ddr,vr,hd,vl,hu: 11% 24% 3% 7% 12% 12% 11% 9% 10%
x264 [info]: i8c dc,h,v,p: 34% 45% 17% 4%
x264 [info]: Weighted P-Frames: Y:17.0% UV:0.9%
x264 [info]: ref P L0: 42.1% 12.8% 23.5% 8.8% 9.9% 2.7% 0.1%
x264 [info]: ref B L0: 83.6% 12.0% 3.1% 1.3%
x264 [info]: ref B L1: 96.3% 3.7%
x264 [info]: kb/s:1514.07
-
General
Unique ID : 221254217252598972283230114938904127088 (0xA6740321B1917B57ABEA8B8B5FF02670)
Complete name : Belcanto\Belcanto Part2.mkv
Format : Matroska
Format version : Version 4 / Version 2
File size : 2.38 GiB
Duration : 3h 18mn
Overall bit rate : 1 713 Kbps
Encoded date : UTC 2015-02-02 18:24:16
Writing application : mkvmerge v7.5.0 ('Glass Culture') 32bit built on Jan 4 2015 16:37:25
Writing library : libebml v1.3.1 + libmatroska v1.4.2
DURATION : 03:16:30.908000000
NUMBER_OF_FRAMES : 1380
NUMBER_OF_BYTES : 68796
_STATISTICS_WRITING_APP : mkvmerge v7.5.0 ('Glass Culture') 32bit built on Jan 4 2015 16:37:25
_STATISTICS_WRITING_DATE_UTC : 2015-02-02 18:24:16
_STATISTICS_TAGS : BPS DURATION NUMBER_OF_FRAMES NUMBER_OF_BYTES
Video
ID : 1
Format : AVC
Format/Info : Advanced Video Codec
Format profile : High@L4.1
Format settings, CABAC : Yes
Format settings, ReFrames : 5 frames
Codec ID : V_MPEG4/ISO/AVC
Duration : 3h 18mn
Bit rate : 1 487 Kbps
Width : 692 pixels
Height : 572 pixels
Display aspect ratio : 1.290
Frame rate mode : Constant
Frame rate : 25.000 fps
Color space : YUV
Chroma subsampling : 4:2:0
Bit depth : 8 bits
Scan type : Progressive
Bits/(Pixel*Frame) : 0.150
Stream size : 2.07 GiB (87%)
Writing library : x264 core 130 r2273 b3065e6
Encoding settings : cabac=1 / ref=5 / deblock=1:-3:-3 / analyse=0x3:0x133 / me=umh / subme=11 / psy=1 / psy_rd=1.05:0.10 / mixed_ref=1 / me_range=32 / chroma_me=1 / trellis=2 / 8x8dct=1 / cqm=0 / deadzone=21,11 / fast_pskip=1 / chroma_qp_offset=-3 / threads=4 / lookahead_threads=1 / sliced_threads=0 / nr=0 / decimate=1 / interlaced=0 / bluray_compat=0 / constrained_intra=0 / bframes=5 / b_pyramid=2 / b_adapt=2 / b_bias=0 / direct=1 / weightb=1 / open_gop=0 / weightp=2 / keyint=250 / keyint_min=25 / scenecut=40 / intra_refresh=0 / rc_lookahead=60 / rc=crf / mbtree=1 / crf=21.0 / qcomp=0.65 / qpmin=0 / qpmax=69 / qpstep=4 / ip_ratio=1.40 / aq=1:0.90
Language : English
Default : Yes
Forced : No
DURATION : 03:18:59.480000000
NUMBER_OF_FRAMES : 298487
NUMBER_OF_BYTES : 2266976273
_STATISTICS_WRITING_APP : mkvmerge v7.5.0 ('Glass Culture') 32bit built on Jan 4 2015 16:37:25
_STATISTICS_WRITING_DATE_UTC : 2015-02-02 18:24:16
_STATISTICS_TAGS : BPS DURATION NUMBER_OF_FRAMES NUMBER_OF_BYTES
Audio
ID : 2
Format : AC-3
Format/Info : Audio Coding 3
Mode extension : CM (complete main)
Format settings, Endianness : Big
Codec ID : A_AC3
Duration : 3h 18mn
Bit rate mode : Constant
Bit rate : 192 Kbps
Channel(s) : 2 channels
Channel positions : Front: L R
Sampling rate : 48.0 KHz
Bit depth : 16 bits
Compression mode : Lossy
Stream size : 273 MiB (11%)
Default : Yes
Forced : No
Text #1
ID : 3
Format : ASS
Codec ID : S_TEXT/ASS
Codec ID/Info : Advanced Sub Station Alpha
Compression mode : Lossless
Language : Russian
Default : Yes
Forced : No
Text #2
ID : 4
Format : UTF-8
Codec ID : S_TEXT/UTF8
Codec ID/Info : UTF-8 Plain Text
Language : English
Default : No
Forced : No
Text #3
ID : 5
Format : UTF-8
Codec ID : S_TEXT/UTF8
Codec ID/Info : UTF-8 Plain Text
Language : French
Default : No
Forced : No
Text #4
ID : 6
Format : UTF-8
Codec ID : S_TEXT/UTF8
Codec ID/Info : UTF-8 Plain Text
Language : German
Default : No
Forced : No
Text #5
ID : 7
Format : UTF-8
Codec ID : S_TEXT/UTF8
Codec ID/Info : UTF-8 Plain Text
Language : Italian
Default : No
Forced : No
Text #6
ID : 8
Format : UTF-8
Codec ID : S_TEXT/UTF8
Codec ID/Info : UTF-8 Plain Text
Language : Spanish
Default : No
Forced : No



Показать сообщения:    

Текущее время: 10-Дек 21:29

Часовой пояс: UTC + 3


Вы не можете начинать темы
Вы не можете отвечать на сообщения
Вы не можете редактировать свои сообщения
Вы не можете удалять свои сообщения
Вы не можете голосовать в опросах
Вы не можете прикреплять файлы к сообщениям
Вы не можете скачивать файлы