Bizet - Carmen / Бизе - Кармен (Образцова, Атлантов, Мазурок, Эрмлер, Захаров) [1982, opera, DVB-AVC]


 

[Цитировать]

Bizet - Carmen / Бизе - Кармен
Год выпуска: 1982
Страна-производитель: СССР
Жанр: opera
Продолжительность: 02:33:43
Язык: русский
Режиссер/Хореограф: Ростислав Захаров
Дирижер: Марк Эрмлер
Исполнители:
Кармен - Елена ОБРАЗЦОВА
Микаэла - Людмила Сергиенко
Фраскита - Ирина Журина
Мерседес - Татьяна Тугаринова
Дон Хозе - Владимир АТЛАНТОВ
Эскамильо - Юрий МАЗУРОК
Моралес - Игорь МОРОЗОВ
Ремендадо - Андрей Соколов
Данкайро - Владислав Пашинский
Цунига - Юрий Королев
Описание: Постановка Большого театра России (1982).
Качество видео: DVB-AVC (РТРС-1)
Формат/Контейнер: MKV
Видео кодек: H.264
Аудио кодек: MP2
Видео поток: 720x576 (AR 785:576) 50fps ~2500 Kbps.
Аудио поток: 48000Hz 2 ch mono 192 Kbps

MI

Format : Matroska
Format version : Version 4 / Version 2
File size : 2.99 GiB
Duration : 2h 33mn
Overall bit rate : 2 782 Kbps
Encoded date : UTC 2015-01-18 19:53:38
Writing application : mkvmerge v6.1.0 ('Old Devil') built on Mar 4 2013 09:10:42
Writing library : libebml v1.3.0 + libmatroska v1.4.0
Video
ID : 1
Format : AVC
Format/Info : Advanced Video Codec
Format profile : Main@L3.0
Format settings, CABAC : Yes
Format settings, ReFrames : 3 frames
Format settings, GOP : M=4, N=28
Codec ID : V_MPEG4/ISO/AVC
Duration : 2h 33mn
Bit rate : 2 535 Kbps
Width : 720 pixels
Height : 576 pixels
Display aspect ratio : 4:3
Original display aspect ratio : 4:3
Frame rate mode : Constant
Frame rate : 25.000 fps
Standard : Component
Color space : YUV
Chroma subsampling : 4:2:0
Bit depth : 8 bits
Scan type : Interlaced
Scan order : Top Field First
Bits/(Pixel*Frame) : 0.245
Stream size : 2.72 GiB (91%)
Default : Yes
Forced : No
Color primaries : BT.601 PAL
Transfer characteristics : BT.470 System B, BT.470 System G
Matrix coefficients : BT.601
Audio
ID : 2
Format : MPEG Audio
Format version : Version 1
Format profile : Layer 2
Codec ID : A_MPEG/L2
Codec ID/Hint : MP2
Duration : 2h 33mn
Bit rate mode : Constant
Bit rate : 192 Kbps
Channel(s) : 2 channels
Sampling rate : 48.0 KHz
Compression mode : Lossy
Delay relative to video : 3ms
Stream size : 211 MiB (7%)
Default : Yes
Forced : No



Показать сообщения:    

Текущее время: 09-Дек 10:49

Часовой пояс: UTC + 3


Вы не можете начинать темы
Вы не можете отвечать на сообщения
Вы не можете редактировать свои сообщения
Вы не можете удалять свои сообщения
Вы не можете голосовать в опросах
Вы не можете прикреплять файлы к сообщениям
Вы не можете скачивать файлы