Оперный Бал в честь Елены Образцовой [2014, opera, concert, HDTVRip-AVC]


 

[Цитировать]

Оперный Бал в честь Елены Образцовой
Год выпуска: 2014
Жанр: opera, concert
Продолжительность: 01:40:07+01:19:36
Язык: русский
Дирижер: Юджин Кон
Режиссер: Дмитрий Бертман
Исполнители:
Анна Нетребко,
Мария Гулегина,
Ольга Перетятько,
Екатерина Сюрина,
Дмитрий Хворостовский,
Хосе Кура,
Бруно Пратико
Мария Пахес,
Светлана Захарова,
Юлия Махалина.
оркестр Большого театра
Хор театра Геликон-Опера
Треклист:

Первое отделение

П. Чайковский. Хор "Радостно, весело в день сей!" из оперы "Пиковая дама"
Дж. Верди. Ария и кабалетта Абигайль из оперы "Набукко" (Мария Гулегина и Дмитрий Скориков)
Р. Леонкавалло. Ария Канио из оперы "Паяцы" (Хосе Кура)
Ж. Оффенбах. Куплеты Олимпии из оперы "Сказки Гофмана" (Ольга Перетятько)
Дж. Россини. Ария Дона Маньифико из оперы "Золушка" (Бруно Пратико)
Ш. Гуно. Вальс Джульетты из оперы "Ромео и Джульетта" (Екатерина Сюрина)
А. Рубинштейн. Ария Демона из оперы "Демон (Дмитрий Хворостовский)
Дж. Россини. Ария Зельмиры из оперы "Зельмира" (Юлия Лежнева)
М. Мусоргский. Песня Варлаама из оперы "Борис Годунов" (Юрий Власов)
"The way" - композиция на музыку Ж. Массне. Хореография Е. Клявина, соло на виолончели - Борислав Струлёв (Юлия Махалина)
Дж. Верди. Ария Леди Макбет из оперы "Макбет" (Анна Нетребко)
П. Чайковский. Сцена в спальне Графини из оперы "Пиковая дама" (Елена Образцова, Мария Гулегина, Максим Аксёнов)
В. Моцарт. Дуэт Церлины и Дон Жуана из оперы "Дон Жуан" (Динара Алиева, Екатерина Сюрина, Дмитрий Хворостовский)

Второе отделение

А. Понкьелли. Хор "Хлеба! Прозднеств!" из оперы "Джоконда"
Фламенко. Композиция на темы народной испанской музыки. Солистка - Мария Пахес
Ф. Легар. Ария принца Су-Чонга из оперетты "Страна улыбок" (Юсиф Эйвазов)
П. Луна. Испанская песня из сарсуэлы "Еврейское дитя" (Динара Алиева)
Дж. Пуччини. Ария Тоски из оперы "Тоска" (Мария Гулегина)
Г. Доницетти. Ария Норины из оперы "Дон Паскуале" (Екатерина Сюрина)
В. Моцарт. Серенада Дон Жуана из оперы "Дон Жуан" (Дмитрий Хворостовский)
Г. Доницетти. Дуэт Адины и Дулькамары из оперы "Любовный напиток" (Хибла Герзмава и Бруно Пратико)
Ж. Массне. Гавот Манон из оперы "Манон" (Ольга Перетятько)
Дж. Пуччини. Дуэт Манон и Де Грие из оперы "Манон Леско" (Анна Нетребко, Юсиф Эйвазов)
Дж. Пуччини. Ария Калафа из оперы "Турандот" (Хосе Кура)
Д. Верди. Застольная из оперы "Травиата" (финал)

В программу концерта включены видеозаписи

К. Сен-Санс. Третья ария Далилы из оперы "Самсон и Далила" (концерт в Токио)
Поздравление от Пласидо Доминго
П. Масканьи. Дуэт Сантуцци и Туридду из фильма-оперы "Сельская честь"
Ж. Бизе. Финальная сцена из оперы "Кармен" (запись спектакля Большого театра)
Дж. Пуччини. Ария Лауретты из оперы "Джанни Скикки" (концерт в Токио)
Описание: Торжественный концерт в Большом театре. Посвящен 75-летию выдающейся русской певицы Елены Васильевны Образцовой.
Поврежденное начало второго действия заменено на фрагмент исходного DVB
Качество видео: HDTVRip-AVC
Формат/Контейнер: MKV
Видео кодек: H.264
Аудио кодек: MP2
Видео поток: 956x536 25fps ~1400 Kbps.
Аудио поток: 48000Hz stereo 192 Kbps

MediaInfo

Format : MatroskaFormat version : Version 4 / Version 2File size : 1.14 GiBDuration : 1h 40mnOverall bit rate : 1 626 KbpsEncoded date : UTC 2015-01-15 22:49:59Writing application : mkvmerge v6.1.0 ('Old Devil') built on Mar 4 2013 09:10:42Writing library : libebml v1.3.0 + libmatroska v1.4.0
VideoID : 1Format : AVCFormat/Info : Advanced Video CodecFormat profile : High@L4.1Format settings, CABAC : YesFormat settings, ReFrames : 8 framesCodec ID : V_MPEG4/ISO/AVCDuration : 1h 40mnBit rate : 1 402 KbpsWidth : 956 pixelsHeight : 536 pixelsDisplay aspect ratio : 16:9Frame rate mode : ConstantFrame rate : 25.000 fpsColor space : YUVChroma subsampling : 4:2:0Bit depth : 8 bitsScan type : ProgressiveBits/(Pixel*Frame) : 0.109Stream size : 1 004 MiB (86%)Writing library : x264 core 130 r2273 b3065e6Encoding settings : cabac=1 / ref=8 / deblock=1:-1:-1 / analyse=0x3:0x133 / me=umh / subme=9 / psy=1 / psy_rd=1.00:0.10 / mixed_ref=1 / me_range=24 / chroma_me=1 / trellis=2 / 8x8dct=1 / cqm=0 / deadzone=21,11 / fast_pskip=1 / chroma_qp_offset=-3 / threads=6 / lookahead_threads=1 / sliced_threads=0 / nr=0 / decimate=1 / interlaced=0 / bluray_compat=0 / constrained_intra=0 / bframes=3 / b_pyramid=2 / b_adapt=2 / b_bias=0 / direct=3 / weightb=1 / open_gop=0 / weightp=2 / keyint=250 / keyint_min=25 / scenecut=40 / intra_refresh=0 / rc_lookahead=60 / rc=crf / mbtree=1 / crf=19.0 / qcomp=0.60 / qpmin=0 / qpmax=69 / qpstep=4 / ip_ratio=1.40 / aq=1:1.00Default : YesForced : No
AudioID : 2Format : MPEG AudioFormat version : Version 1Format profile : Layer 2Codec ID : A_MPEG/L2Codec ID/Hint : MP2Duration : 1h 40mnBit rate mode : ConstantBit rate : 192 KbpsChannel(s) : 2 channelsSampling rate : 48.0 KHzCompression mode : LossyDelay relative to video : 6msStream size : 137 MiB (12%)Default : YesForced : No

Скриншоты

[



Показать сообщения:    

Текущее время: 08-Дек 23:10

Часовой пояс: UTC + 3


Вы не можете начинать темы
Вы не можете отвечать на сообщения
Вы не можете редактировать свои сообщения
Вы не можете удалять свои сообщения
Вы не можете голосовать в опросах
Вы не можете прикреплять файлы к сообщениям
Вы не можете скачивать файлы