Линия жизни. Елена Образцова. [2004, телепередача, биография, DVB-AVC]


 

[Цитировать]

Линия жизни. Елена Образцова.
Год выпуска: 2004
Лейбл: тв Культура
Жанр: телепередача, биография
Продолжительность: 00:51:45
Язык: русский
Режиссер: Константин Владимиров
Описание: Примадонна оперной сцены, выступавшая в крупнейших театрах мира, рассказывает о своем блокадном детстве, годах учебы в ленинградской консерватории, своих великих партнерах – Монтсеррат Кабалье и Пласидо Доминго, о величайшем дирижере Герберте фон Караяне, о драматической роли в спектакле Романа Виктюка и о любви.
Качество видео: DVB-AVC (РТРС-1)
Формат/Контейнер: MKV
Видео кодек: H.264
Аудио кодек: MP2
Видео поток: 720x576 (AR 785:576) 50fps ~2500 Kbps.
Аудио поток: 48000Hz 2 ch mono 192 Kbps

MediaInfo

Format : MatroskaFormat version : Version 4 / Version 2File size : 1.01 GiBDuration : 51mn 44sOverall bit rate : 2 784 KbpsEncoded date : UTC 2015-01-13 18:18:37Writing application : mkvmerge v6.1.0 ('Old Devil') built on Mar 4 2013 09:10:42Writing library : libebml v1.3.0 + libmatroska v1.4.0
VideoID : 1Format : AVCFormat/Info : Advanced Video CodecFormat profile : Main@L3.0Format settings, CABAC : YesFormat settings, ReFrames : 3 framesCodec ID : V_MPEG4/ISO/AVCDuration : 51mn 44sBit rate : 2 537 KbpsWidth : 720 pixelsHeight : 576 pixelsDisplay aspect ratio : 4:3Original display aspect ratio : 4:3Frame rate mode : ConstantFrame rate : 25.000 fpsStandard : ComponentColor space : YUVChroma subsampling : 4:2:0Bit depth : 8 bitsScan type : InterlacedBits/(Pixel*Frame) : 0.245Stream size : 939 MiB (91%)Default : YesForced : NoColor primaries : BT.601 PALTransfer characteristics : BT.470 System B, BT.470 System GMatrix coefficients : BT.601
AudioID : 2Format : MPEG AudioFormat version : Version 1Format profile : Layer 2Codec ID : A_MPEG/L2Codec ID/Hint : MP2Duration : 51mn 44sBit rate mode : ConstantBit rate : 192 KbpsChannel(s) : 2 channelsSampling rate : 48.0 KHzCompression mode : LossyDelay relative to video : 19msStream size : 71.1 MiB (7%)Default : YesForced : No

Скриншоты




Показать сообщения:    

Текущее время: 10-Дек 10:01

Часовой пояс: UTC + 3


Вы не можете начинать темы
Вы не можете отвечать на сообщения
Вы не можете редактировать свои сообщения
Вы не можете удалять свои сообщения
Вы не можете голосовать в опросах
Вы не можете прикреплять файлы к сообщениям
Вы не можете скачивать файлы