Хворостовский и Джордани (Marcello Giordani). Концерт в Государственном Кремлевском дворце [2013, concert, DVB-AVC]


 

[Цитировать]

Хворостовский и Джордани (Marcello Giordani). Концерт в Государственном Кремлевском дворце
Год выпуска: 2013
Жанр: concert
Продолжительность: 01:00:59
Исполнители:
Дмитрий Хворостовский
Марчелло Джордани.
Государственный академический симфонический оркестр России имени Е. Светланова.
Дирижер: Константин Орбелян.
Треклист:
- Петр Чайковский, баллада Томского из оперы "Пиковая дама",
- Джузеппе Верди, ария Радамеса из оперы "Аида", сцена и ария Ренато из оперы "Балл-маскарад", дуэт Карлоса и Родриго из оперы "Дон Карлос"
- Руджеро Леонкавалло, ария Тонио из оперы "Паяцы" и ария Канио из оперы "Паяцы"
- Джоаккино Россини, ария Арзаче из оперы "Семирамида"
- Джузеппе Верди, ария Яго из оперы "Отелло", дуэт Альваро и Карлоса из оперы "Силы судьбы"
Описание: Два знаменитых певца - русский баритон Дмитрий Хворостовский и итальянский тенор Марчелло Джордани исполнят известнейшие арии из опер Чайковского, Верди, Леонкавалло, Россини.
В концерте принимает участие Государственный академический симфонический оркестр России имени Е. Светланова.
Качество видео: DVB-AVC (РТРС-1)
Формат/Контейнер: MKV
Видео кодек: H.264
Аудио кодек: MP2
Видео поток: 720x576 (AR 785:576) 50fps ~2500 Kbps.
Аудио поток: 48000Hz 2 ch mono 192 Kbps

MediaInfo

Format : MatroskaFormat version : Version 4 / Version 2File size : 1.19 GiBDuration : 1h 0mnOverall bit rate : 2 784 KbpsEncoded date : UTC 2014-12-04 15:15:07Writing application : mkvmerge v6.1.0 ('Old Devil') built on Mar 4 2013 09:10:42Writing library : libebml v1.3.0 + libmatroska v1.4.0
VideoID : 1Format : AVCFormat/Info : Advanced Video CodecFormat profile : Main@L3.0Format settings, CABAC : YesFormat settings, ReFrames : 3 framesCodec ID : V_MPEG4/ISO/AVCDuration : 1h 0mnBit rate : 2 536 KbpsWidth : 720 pixelsHeight : 576 pixelsDisplay aspect ratio : 4:3Original display aspect ratio : 4:3Frame rate mode : ConstantFrame rate : 25.000 fpsStandard : ComponentColor space : YUVChroma subsampling : 4:2:0Bit depth : 8 bitsScan type : InterlacedBits/(Pixel*Frame) : 0.245Stream size : 1.08 GiB (91%)Default : YesForced : NoColor primaries : BT.601 PALTransfer characteristics : BT.470 System B, BT.470 System GMatrix coefficients : BT.601
AudioID : 2Format : MPEG AudioFormat version : Version 1Format profile : Layer 2Codec ID : A_MPEG/L2Codec ID/Hint : MP2Duration : 1h 0mnBit rate mode : ConstantBit rate : 192 KbpsChannel(s) : 2 channelsSampling rate : 48.0 KHzCompression mode : LossyDelay relative to video : 19msStream size : 83.7 MiB (7%)Default : YesForced : No

Скриншоты




Показать сообщения:    

Текущее время: 11-Дек 12:58

Часовой пояс: UTC + 3


Вы не можете начинать темы
Вы не можете отвечать на сообщения
Вы не можете редактировать свои сообщения
Вы не можете удалять свои сообщения
Вы не можете голосовать в опросах
Вы не можете прикреплять файлы к сообщениям
Вы не можете скачивать файлы