Концерт "Звезды мировой оперы" в Новой опере(Абдразаков, Ладюк, Мхитарян, Mastrangelo) [2014, opera, concert, DVB-AVC]


 

[Цитировать]

Концерт "Звезды мировой оперы" в Новой опере
Год выпуска: 2014
Жанр: opera, concert
Продолжительность: 01:21:10
Дирижер: Фабио Мастранджело
Исполнители:
Ильдар Абдразаков,
Василий Ладюк
Кристина Мхитарян
оркестр театра "Новая опера"

Треклист

Верди - Сила судьбы, увертюра
Верди - Макбет, ария Банко «Studia il passo… Come dal ciel precipita» (Ильдар Абдразаков)
Верди - Стиффелио, ария Станкара (Василий Ладюк)
Верди - Эрнани, каватина Дона Сильвы (Ильдар Абдразаков)
Верди - Риголетто, ария Джильды (Кристина Мхитарян)
Верди - Дон Карлос, сцена Короля Филиппа и Родриго (Ильдар Абдразаков и Василий Ладюк)
Моцарт - Дон Жуан, ария Лепорелло «Malamina il catalogo e questo» (Ильдар Абдразаков)
Моцарт - Дон Жуан, дуэт Церлины и Дон Жуана (Ильдар Абдразаков, Кристина Мхитарян, Василий Ладюк)
Россини - Севильский цирюльник, увертюра
Россини - Севильский цирюльник, каватина Фигаро (Василий Ладюк)
Россини - Севильский цирюльник, ария Дона Базилио (Ильдар Абдразаков)
Гуно - Фауст, куплеты Мефистофеля (Ильдар Абдразаков)
Рахманинов - Алеко, Каватина Алеко (Ильдар Абдразаков)
Описание: Хотите узнать кто возглавил список Дона Жуана? Смотрите внимательнее!
(А если, вдруг, Вы - оперный режиссер, то лучше наоборот, зажмурьтесь как можно крепче)
Качество видео: DVB-AVC (РТРС-1)
Формат/Контейнер: MKV
Видео кодек: H.264
Аудио кодек: MP2
Видео поток: 720x576 (AR 785:576) 50fps ~2500 Kbps. Обрезка кадра средствами контейнера до AR 16:9 работает в некоторых плеерах.
Аудио поток: 48000Hz 2 ch mono 192 Kbps

MediaInfo

Format : MatroskaFormat version : Version 4 / Version 2File size : 1.58 GiBDuration : 1h 21mnOverall bit rate : 2 787 KbpsEncoded date : UTC 2014-11-05 14:59:19Writing application : mkvmerge v6.1.0 ('Old Devil') built on Mar 4 2013 09:10:42Writing library : libebml v1.3.0 + libmatroska v1.4.0
VideoID : 1Format : AVCFormat/Info : Advanced Video CodecFormat profile : Main@L3.0Format settings, CABAC : YesFormat settings, ReFrames : 3 framesCodec ID : V_MPEG4/ISO/AVCDuration : 1h 21mnBit rate : 2 540 KbpsWidth : 720 pixelsHeight : 576 pixelsDisplay aspect ratio : 4:3Original display aspect ratio : 4:3Frame rate mode : ConstantFrame rate : 25.000 fpsStandard : ComponentColor space : YUVChroma subsampling : 4:2:0Bit depth : 8 bitsScan type : InterlacedBits/(Pixel*Frame) : 0.245Stream size : 1.44 GiB (91%)Default : YesForced : NoColor primaries : BT.601 PALTransfer characteristics : BT.470 System B, BT.470 System GMatrix coefficients : BT.601
AudioID : 2Format : MPEG AudioFormat version : Version 1Format profile : Layer 2Codec ID : A_MPEG/L2Codec ID/Hint : MP2Duration : 1h 21mnBit rate mode : ConstantBit rate : 192 KbpsChannel(s) : 2 channelsSampling rate : 48.0 KHzCompression mode : LossyDelay relative to video : 20msStream size : 111 MiB (7%)Default : YesForced : No

Скриншоты




Показать сообщения:    

Текущее время: 06-Дек 20:57

Часовой пояс: UTC + 3


Вы не можете начинать темы
Вы не можете отвечать на сообщения
Вы не можете редактировать свои сообщения
Вы не можете удалять свои сообщения
Вы не можете голосовать в опросах
Вы не можете прикреплять файлы к сообщениям
Вы не можете скачивать файлы