Mozart - Le nozze di Figaro / Моцарт - Свадьба Фигаро(Абдразаков / Abdrazakov, Petersen, Leonard, Mattei, Levine, Eyre) [2014, opera, HDRip] (sub: Eng, Fre, Ger, Ita, Por, Swe, Русские)


 

[Цитировать]

Mozart - Le nozze di Figaro / Моцарт - Свадьба Фигаро
Год выпуска: 2014
Жанр: opera
Продолжительность: 3:25:16
Язык: Итальянский
Субтитры: English, French, German, Italian, Portoguese, Sweden, Русские
Дирижер: JAMES LEVINE
Режиссер: Richard Eyre
Исполнители:
Figaro bass-baritone, Ильдар Абдразаков / ILDAR ABDRAZAKOV
Susanna soprano, MARLIS PETERSEN
Dr. Bartolo bass-baritone, JOHN DEL CARLO
Marcellina mezzo, SUSANNE MENTZER
Cherubino mezzo, ISABEL LEONARD
Count baritone, PETER MATTEI
Don Basilio tenor, GREG FEDDERLY
Countess sop., AMANDA MAJESKI
Antonio bass, PHILIP COKORINOS
Barbarina soprano, YING FANG
Don Curzio tenor, SCOTT SCULLY
Качество видео: HDRip
Формат/Контейнер: MKV
Видео кодек: H.264
Аудио кодек: AC3
Видео поток: 960x540 25fps crf=19 1734 Kbps
Аудио поток: 48000Hz 6ch 448 Kbps

MI

Complete name : D:\rip\Mozart - LE NOZZE DI FIGARO (Levine, MET)\1 Part I.mkvFormat : MatroskaFormat version : Version 2File size : 1.70 GiBDuration : 1h 49mnOverall bit rate : 2 227 KbpsMovie name : 1 Part IEncoded date : UTC 2014-10-23 04:55:43Writing application : mkvmerge v6.1.0 ('Old Devil') built on Mar 4 2013 09:10:42Writing library : libebml v1.3.0 + libmatroska v1.4.0
VideoID : 1Format : AVCFormat/Info : Advanced Video CodecFormat profile : High@L4.1Format settings, CABAC : YesFormat settings, ReFrames : 8 framesCodec ID : V_MPEG4/ISO/AVCDuration : 1h 49mnBit rate : 1 734 KbpsWidth : 960 pixelsHeight : 540 pixelsDisplay aspect ratio : 16:9Frame rate mode : ConstantFrame rate : 25.000 fpsColor space : YUVChroma subsampling : 4:2:0Bit depth : 8 bitsScan type : ProgressiveBits/(Pixel*Frame) : 0.134Stream size : 1.32 GiB (78%)Writing library : x264 core 130 r2273 b3065e6Encoding settings : cabac=1 / ref=8 / deblock=1:-1:-1 / analyse=0x3:0x133 / me=umh / subme=9 / psy=1 / psy_rd=1.00:0.10 / mixed_ref=1 / me_range=24 / chroma_me=1 / trellis=2 / 8x8dct=1 / cqm=0 / deadzone=21,11 / fast_pskip=1 / chroma_qp_offset=-3 / threads=6 / lookahead_threads=1 / sliced_threads=0 / nr=0 / decimate=1 / interlaced=0 / bluray_compat=0 / constrained_intra=0 / bframes=3 / b_pyramid=2 / b_adapt=2 / b_bias=0 / direct=3 / weightb=1 / open_gop=0 / weightp=2 / keyint=250 / keyint_min=25 / scenecut=40 / intra_refresh=0 / rc_lookahead=60 / rc=crf / mbtree=1 / crf=19.0 / qcomp=0.60 / qpmin=0 / qpmax=69 / qpstep=4 / ip_ratio=1.40 / aq=1:1.00Default : YesForced : No
AudioID : 2Format : AC-3Format/Info : Audio Coding 3Mode extension : CM (complete main)Format settings, Endianness : BigCodec ID : A_AC3Duration : 1h 49mnBit rate mode : ConstantBit rate : 448 KbpsChannel(s) : 6 channelsChannel positions : Front: L C R, Side: L R, LFESampling rate : 48.0 KHzBit depth : 16 bitsCompression mode : LossyStream size : 349 MiB (20%)Language : EnglishDefault : YesForced : No



Показать сообщения:    

Текущее время: 08-Дек 01:20

Часовой пояс: UTC + 3


Вы не можете начинать темы
Вы не можете отвечать на сообщения
Вы не можете редактировать свои сообщения
Вы не можете удалять свои сообщения
Вы не можете голосовать в опросах
Вы не можете прикреплять файлы к сообщениям
Вы не можете скачивать файлы