Pergolesi - La Serva Padrona / Служанка-госпожа (Александр Мусиенко, Анна Савченко, Евгений Хандак, реж. Константин Балакин) [2002 г, комическая опера, WEB-DLRip] Ростовский государственный музыкальный театр


 

[Цитировать]

Служанка-госпожа Название театра: Ростовский государственный музыкальный театр г. Ростов-на-Дону.
Год выпуска: 2002.
Жанр: комическая опера.
Продолжительность: 00:42:37.
Режиссер: Константин Балакин.
Действующие лица и исполнители:
Уберто, холостяк - заслуженный артист России Александр Мусиенко,
Серпина, служанка - Анна Савченко,
Веспоне, слуга - заслуженный артист России
Евгений Хандак
.
О спектакле:
Фабупа заимствована из круга типовых сюжетов итальянской «комедии масок». Служанка Серпина пытается хитростью женить на себе своего хозяина Уберто. Ей помогает слуга Веспоне. Переодевшись в жениха Серпины, он требует от её господина огромного приданого. Ревнивый и скупой Уберто, сам того не подозревая, становится участником комедии, которую перед ним разыгрывают слуги. Одураченный хозяин женится на Серпине. Так служанка становится госпожой.
Дополнительная информация:
Страна: Россия .
Композитор: Джованни Баттиста Перголези.
Автор либретто: Дженнарио Федерико.
Дирижер-постановщик: Алексей Шакуро.
Художник-постановщик: Светлана Думма.

Релиз
Рип sharky.

Качество видео:...WEB-DLRip
Формат:.................AVI
Видео:..704x528 (1.33:1), 25 fps, XviD build 47 ~2230 kbps avg, 0.24 bit/pixel
Аудио:..48 kHz, AC3 Dolby Digital, 2/0 (L,R) ch, ~192 kbps

Отчет Media Info

General
Complete name : Sluzhanka.gospozha_Rostovskij.muzykal'nyj.teatr.2003.XviD.WEB-DLRip.fenixclub.avi
Format : AVI
Format/Info : Audio Video Interleave
File size : 742 MiB
Duration : 42mn 37s
Overall bit rate : 2 433 Kbps
Writing application : VirtualDubMod 1.5.10.2 (build 2540/release)
Writing library : VirtualDubMod build 2540/release
Video
ID : 0
Format : MPEG-4 Visual
Format profile : Advanced Simple@L5
Format settings, BVOP : 1
Format settings, QPel : No
Format settings, GMC : No warppoints
Format settings, Matrix : Default (H.263)
Codec ID : XVID
Codec ID/Hint : XviD
Duration : 42mn 37s
Bit rate : 2 231 Kbps
Width : 704 pixels
Height : 528 pixels
Display aspect ratio : 4:3
Frame rate : 25.000 fps
Color space : YUV
Chroma subsampling : 4:2:0
Bit depth : 8 bits
Scan type : Progressive
Compression mode : Lossy
Bits/(Pixel*Frame) : 0.240
Stream size : 680 MiB (92%)
Writing library : XviD 1.2.0.dev47 (UTC 2006-11-01)
Audio
ID : 1
Format : AC-3
Format/Info : Audio Coding 3
Mode extension : CM (complete main)
Format settings, Endianness : Big
Codec ID : 2000
Duration : 42mn 37s
Bit rate mode : Constant
Bit rate : 192 Kbps
Channel(s) : 2 channels
Channel positions : Front: L R
Sampling rate : 48.0 KHz
Bit depth : 16 bits
Compression mode : Lossy
Stream size : 58.5 MiB (8%)
Alignment : Split accross interleaves
Interleave, duration : 40 ms (1.00 video frame)
Interleave, preload duration : 500 ms.

Скриншоты


Альтернативный хост





Показать сообщения:    

Текущее время: 09-Дек 14:41

Часовой пояс: UTC + 3


Вы не можете начинать темы
Вы не можете отвечать на сообщения
Вы не можете редактировать свои сообщения
Вы не можете удалять свои сообщения
Вы не можете голосовать в опросах
Вы не можете прикреплять файлы к сообщениям
Вы не можете скачивать файлы