Offenbach - Orphee aux Enfers / Орфей в аду (Алексей Шакуро, Владимир Кабанов, Ольга Макарова, Павел Белоусов, Владимир Бурлуцкий, Александр Мусиенко, реж. Константин Балакин) [2003 г, оперетта, WEB-DLRip] Ростовский государственный музыкальный театр


 

[Цитировать]

Орфей в аду Название театра: Ростовский государственный музыкальный театр г. Ростов-на-Дону.
Год выпуска: 2003.
Жанр: оперетта.
Продолжительность: 02:29:51.
Режиссер: .
Действующие лица и исполнители:
Дирижер - Алексей Шакуро,
Орфей, артист - Владимир Кабанов,
Эвридика, его жена - Ольга Макарова,
Джон Стикс, журналист - Павел Белоусов,
Общественное мнение - Оксана Андреева,
Аристей, пасечник, он же Плутон, бог Подземного царства - заслуженный артист России Владимир Бурлуцкий,
Юпитер, верховный бог Олимпа - заслуженный артист России Александр Мусиенко,
Юнона, его жена - Людмила Кошкина,
Диана, богиня охоты - Анна Савченко,
Венера, богиня красоты - Ольга Романенко,
Купидон, бог любви - Татьяна Климова,
Минерва, богиня мудрости - заслуженна артистка России Людмила Андреева,
Марс, бог войны - заслуженный артист России Вячеслав Гостищев,
Морфей, бог сна - заслуженный артист России
Евгений Хандак
,
Меркурий, бог торговли - Владимир Прокопенко,
Цербер, сторожевой пес - Владимир Нимченко,
Оффенбах - Валерий Храпонов.
Хоровая капелла мальчиков, артисты хора, балета и мимического ансамбля Ростовского Государственного Музыкального театра.
Оркестр Ростовского Государственного Музыкального театра.

О спектакле:
Пьеса Николая Оганесова по мотивам Гектора Кремьё и Людовика Галеви.
Пожалуй, ни одно сценическое произведение не имело такого количества страстных поклонников и не менее страстных противников, не вызывало такого разброса мнений. «Карикатурная» или «гениальная», «кощунственная» или «блистательная», «пародийная» или «божественная» – эта оперетта после нескольких представлений стремительно перешагнула границы Франции и сделала автора одним из самых популярных композиторов Европы.
В Ростовском музыкальном театре, при исключительно бережном отношении к музыкальному материалу, было решено сделать новую пьесу, отвечающую современным требованиям. В основу была положена новая фабула, изменившая характеры и побудительные мотивы сценической жизни персонажей. И само название «Орфей в аду» приобрело иной смысл – оно говорит о душевном состоянии героя, легкомысленного, упоенного собственной славой, не сумевшего понять, оценить свое счастье и потому обреченного раскаиваться, мучиться, расплачиваясь за свои ошибки.

Дополнительная информация:
Страна: Россия .
Выпущено: Студия "Академия TV".
Композитор: Жак Оффенбах.
Автор либретто: Николай Оганесов.
По мотивам либретто Гектора Кремьё и Людовика Галеви.
Художественный руководитель постановки: заслуженный деятель искусств России Вячеслав Кущёв.
Дирижер-постановщик: Светлана Филиппович.
Художник-постановщик: Эрнст Хайдебрехт.
Хормейстер-постановщик: заслуженный деятель искусств России Елена Клиничева.
Хореограф-постановщик: Елена Иванова.
Художник по костюмам: Наталья Земалиндинова.
Художник по свету: Сергей Мартынов.
Премьера состоялась 12 сентября 2003 года.

Релиз
Рип sharky.

Качество видео:...WEB-DLRip
Формат:.................AVI
Видео:..704x528 (1.33:1), 25 fps, XviD build 47 ~1880 kbps avg, 0.20 bit/pixel
Аудио:..48 kHz, AC3 Dolby Digital, 2/0 (L,R) ch, ~192 kbps

Отчет Media Info

General
Complete name : Orfej.v.adu_Rostovskij.muzykal'nyj.teatr.2003.XviD.WEB-DLRip.fenixclub.avi
Формат : AVI
Формат/Информация : Audio Video Interleave
Профиль формата : OpenDML
Размер файла : 2,18 Гбайт
Продолжительность : 2 ч. 29 м.
Общий поток : 2079 Кбит/сек
Программа кодирования : VirtualDubMod 1.5.10.2 (build 2540/release)
Библиотека кодирования : VirtualDubMod build 2540/release
Видео
Идентификатор : 0
Формат : MPEG-4 Visual
Профиль формата : Advanced Simple@L5
Параметр BVOP формата : 1
Параметр QPel формата : Нет
Параметр GMC формата : Без точки перехода
Параметр матрицы формата : Default (H.263)
Идентификатор кодека : XVID
Идентификатор кодека/Подсказка : XviD
Продолжительность : 2 ч. 29 м.
Битрейт : 1875 Кбит/сек
Ширина : 704 пикселя
Высота : 528 пикселей
Соотношение сторон : 4:3
Частота кадров : 25,000 кадров/сек
Цветовое пространство : YUV
Субдискретизация насыщенности : 4:2:0
Битовая глубина : 8 бит
Тип развёртки : Прогрессивная
Метод сжатия : С потерями
Бит/(Пиксели*Кадры) : 0.202
Размер потока : 1,96 Гбайт (90%)
Библиотека кодирования : XviD 1.2.0.dev47 (UTC 2006-11-01)
Аудио
Идентификатор : 1
Формат : AC-3
Формат/Информация : Audio Coding 3
Расширение режима : CM (complete main)
Параметр Endianness формата : Big
Идентификатор кодека : 2000
Продолжительность : 2 ч. 29 м.
Вид битрейта : Постоянный
Битрейт : 192 Кбит/сек
Каналы : 2 канала
Расположение каналов : Front: L R
Частота : 48,0 КГц
Битовая глубина : 16 бит
Метод сжатия : С потерями
Размер потока : 206 Мбайт (9%)
Выравнивание : Разделение по промежуткам
Продолжительность промежутка : 40 мс. (1,00 видеокадр)
Время предзагрузки промежутка : 500 мс.

Скриншоты


Альтернативный хост





Показать сообщения:    

Текущее время: 08-Дек 11:00

Часовой пояс: UTC + 3


Вы не можете начинать темы
Вы не можете отвечать на сообщения
Вы не можете редактировать свои сообщения
Вы не можете удалять свои сообщения
Вы не можете голосовать в опросах
Вы не можете прикреплять файлы к сообщениям
Вы не можете скачивать файлы