Шекспир и Verdi - Отелло. Музыкально-литературная композиция ( Федосеев, Фантини, Антоненко, Азизов )[2010, opera, DVB-AVC]


 

[Цитировать]

Шекспир и Верди - Отелло. Музыкально-литературная композиция
Год выпуска: 2010
Жанр: opera
Продолжительность: 00:50:44
Исполнители:
Академический Большой симфонический оркестр им. П.И. Чайковского, дирижер Владимир Федосеев.
Солиты: Н. Фантини, А. Антоненко, Э. Азизов.
Чтецы: М. Филиппов, Д. Мороз, О. Долин.
Описание: Музыкально-литературная композиция по одноименным произведениям Уильяма Шекспира и Джузеппе Верди.
Качество видео: DVB-AVC (РТРС-1)
Формат/Контейнер: MKV
Видео кодек: H.264
Аудио кодек: MP2
Видео поток: 720x576 (AR 785:576) 50fps ~2500 Kbps
Аудио поток: 48000Hz 2 ch mono 192 Kbps

MI

Format : Matroska
Format version : Version 4 / Version 2
File size : 1 001 MiB
Duration : 50mn 44s
Overall bit rate : 2 758 Kbps
Encoded date : UTC 2014-08-23 18:56:35
Writing application : mkvmerge v6.1.0 ('Old Devil') built on Mar 4 2013 09:10:42
Writing library : libebml v1.3.0 + libmatroska v1.4.0
Video
ID : 1
Format : AVC
Format/Info : Advanced Video Codec
Format profile : Main@L3.0
Format settings, CABAC : Yes
Format settings, ReFrames : 3 frames
Codec ID : V_MPEG4/ISO/AVC
Duration : 50mn 44s
Bit rate : 2 512 Kbps
Width : 720 pixels
Height : 576 pixels
Display aspect ratio : 4:3
Original display aspect ratio : 4:3
Frame rate mode : Constant
Frame rate : 25.000 fps
Standard : Component
Color space : YUV
Chroma subsampling : 4:2:0
Bit depth : 8 bits
Scan type : Progressive
Bits/(Pixel*Frame) : 0.242
Stream size : 911 MiB (91%)
Default : Yes
Forced : No
Color primaries : BT.601 PAL
Transfer characteristics : BT.470 System B, BT.470 System G
Matrix coefficients : BT.601
Audio
ID : 2
Format : MPEG Audio
Format version : Version 1
Format profile : Layer 2
Codec ID : A_MPEG/L2
Codec ID/Hint : MP2
Duration : 50mn 44s
Bit rate mode : Constant
Bit rate : 192 Kbps
Channel(s) : 2 channels
Sampling rate : 48.0 KHz
Compression mode : Lossy
Delay relative to video : 20ms
Stream size : 69.7 MiB (7%)
Default : Yes
Forced : No

Скриншоты




Показать сообщения:    

Текущее время: 10-Дек 11:56

Часовой пояс: UTC + 3


Вы не можете начинать темы
Вы не можете отвечать на сообщения
Вы не можете редактировать свои сообщения
Вы не можете удалять свои сообщения
Вы не можете голосовать в опросах
Вы не можете прикреплять файлы к сообщениям
Вы не можете скачивать файлы