Veronika Dzhioeva / Вероника Джиоева в Концертном зале им. П.И. Чайковского (Mozart, Donizetti, Cilea, Verdi, Puccini) [concert, DVB-AVC]


 

[Цитировать]

Вероника Джиоева в Концертном зале им. П.И. Чайковского
Жанр: concert
Продолжительность: 00:58:28
Дирижер: Алим Шахмаметьев
Исполнители: Вероника Джиоева и Государственный симфонический оркестр "Новая Россия".
Треклист:
Моцарт - Свадьба Фигаро - увертюра
Доницетти - Мария Стюарт - молитва Марии Стюарт
Моцарт - Свадьба Фигаро - кавантина Графини
Моцарт - Так поступают все - рондо Фьордилиджи
Доницетти - Розамунда английская - увертюра
Верди - Отелло - ария Дездемоны
Чилеа - Адриенна Лекуврер - ария Адриенны
Верди - Сицилийская вечерня - болеро Елены
Пуччини - Джанни Скикки - ария Лауретты
Доп. информация: Качество видео: DVB-AVC (РТРС-1)
Формат/Контейнер: MKV
Видео кодек: H.264
Аудио кодек: MP2
Видео поток: 720x576 (785:576) 50fps ~2500 Kbps
Аудио поток: 48000Hz 2 ch mono 192 Kbps

MI

Format : Matroska
Format version : Version 4 / Version 2
File size : 1.12 GiB
Duration : 58mn 27s
Overall bit rate : 2 755 Kbps
Encoded date : UTC 2014-08-13 13:33:01
Writing application : mkvmerge v6.1.0 ('Old Devil') built on Mar 4 2013 09:10:42
Writing library : libebml v1.3.0 + libmatroska v1.4.0
Video
ID : 1
Format : AVC
Format/Info : Advanced Video Codec
Format profile : Main@L3.0
Format settings, CABAC : Yes
Format settings, ReFrames : 3 frames
Codec ID : V_MPEG4/ISO/AVC
Duration : 58mn 27s
Bit rate : 2 508 Kbps
Width : 720 pixels
Height : 576 pixels
Display aspect ratio : 4:3
Original display aspect ratio : 4:3
Frame rate mode : Constant
Frame rate : 25.000 fps
Standard : Component
Color space : YUV
Chroma subsampling : 4:2:0
Bit depth : 8 bits
Scan type : Progressive
Bits/(Pixel*Frame) : 0.242
Stream size : 1.02 GiB (91%)
Default : Yes
Forced : No
Color primaries : BT.601 PAL
Transfer characteristics : BT.470 System B, BT.470 System G
Matrix coefficients : BT.601
Audio
ID : 2
Format : MPEG Audio
Format version : Version 1
Format profile : Layer 2
Codec ID : A_MPEG/L2
Codec ID/Hint : MP2
Duration : 58mn 27s
Bit rate mode : Constant
Bit rate : 192 Kbps
Channel(s) : 2 channels
Sampling rate : 48.0 KHz
Compression mode : Lossy
Delay relative to video : 20ms
Stream size : 80.3 MiB (7%)
Default : Yes
Forced : No

Скриншоты




Показать сообщения:    

Текущее время: 10-Дек 23:29

Часовой пояс: UTC + 3


Вы не можете начинать темы
Вы не можете отвечать на сообщения
Вы не можете редактировать свои сообщения
Вы не можете удалять свои сообщения
Вы не можете голосовать в опросах
Вы не можете прикреплять файлы к сообщениям
Вы не можете скачивать файлы