Мария Гулегина / Maria Guleghina. Концерт в Театре им. К.С. Станиславского и Вл.И. Немировича-Данченко ( Verdi, Puccini )[concert, opera, DVB-AVC]


 

[Цитировать]

Мария Гулегина. Концерт в Театре им. К.С. Станиславского и Вл.И. Немировича-Данченко
Жанр: concert, opera
Продолжительность: 00:59:39
Исполнители:
Мария Гулегина.
Оркестр и хор Московского академического музыкального Театра имени К.С. Станиславского и В.И. Немировича-Данченко.
Дирижер - Алефтина Иоффе.
Треклист:
Дж. Верди - Бал-маскарад - Ария Амелии
Дж. Верди - Набуко - Ария и сцена Абигайль (верховный жрец - Петр Соколов)
Дж. Верди - Травиата - Ария Виолеты
Дж. Верди - Макбет - Ария леди Макбет
Дж. Верди - Сицилийская вечерня - Болеро Елены
Дж. Пуччини - Джанни Скикки - Ария Лауретты
Дж. Пуччини - Тоска - Ария Тоски
Дж. Верди - Сила Судьбы - Сцена Леоноры с хором
Армянская народная песня "Журавль"
Описание: Одна из крупнейших певиц нашего времени Мария Гулегина исполняет арии из опер - Дж. Верди и Дж. Пуччини.
Запись в Театре им. К.С. Станиславского и Вл.И. Немировича-Данченко.
Качество видео: DVB-AVC (РТРС-1)
Формат/Контейнер: MKV
Видео кодек: H.264
Аудио кодек: MP2
Видео поток: 720x576 (785:576) 50fps ~2500 Kbps
Аудио поток: 48000Hz 2 ch mono 192 Kbps

MI

Format : Matroska
Format version : Version 4 / Version 2
File size : 1.15 GiB
Duration : 59mn 39s
Overall bit rate : 2 755 Kbps
Encoded date : UTC 2014-08-08 18:45:11
Writing application : mkvmerge v6.1.0 ('Old Devil') built on Mar 4 2013 09:10:42
Writing library : libebml v1.3.0 + libmatroska v1.4.0
Video
ID : 1
Format : AVC
Format/Info : Advanced Video Codec
Format profile : Main@L3.0
Format settings, CABAC : Yes
Format settings, ReFrames : 3 frames
Codec ID : V_MPEG4/ISO/AVC
Duration : 59mn 39s
Bit rate : 2 508 Kbps
Width : 720 pixels
Height : 576 pixels
Display aspect ratio : 4:3
Original display aspect ratio : 4:3
Frame rate mode : Constant
Frame rate : 25.000 fps
Standard : Component
Color space : YUV
Chroma subsampling : 4:2:0
Bit depth : 8 bits
Scan type : Interlaced
Bits/(Pixel*Frame) : 0.242
Stream size : 1.05 GiB (91%)
Default : Yes
Forced : No
Color primaries : BT.601 PAL
Transfer characteristics : BT.470 System B, BT.470 System G
Matrix coefficients : BT.601
Audio
ID : 2
Format : MPEG Audio
Format version : Version 1
Format profile : Layer 2
Codec ID : A_MPEG/L2
Codec ID/Hint : MP2
Duration : 59mn 39s
Bit rate mode : Constant
Bit rate : 192 Kbps
Channel(s) : 2 channels
Sampling rate : 48.0 KHz
Compression mode : Lossy
Delay relative to video : 4ms
Stream size : 81.9 MiB (7%)
Default : Yes
Forced : No

Скриншоты




Показать сообщения:    

Текущее время: 04-Дек 21:26

Часовой пояс: UTC + 3


Вы не можете начинать темы
Вы не можете отвечать на сообщения
Вы не можете редактировать свои сообщения
Вы не можете удалять свои сообщения
Вы не можете голосовать в опросах
Вы не можете прикреплять файлы к сообщениям
Вы не можете скачивать файлы