Исаак Дунаевский - Белая акация (Ирина Каратаева, Владимир Филимонов) [2009 г., Оперетта, WEB-DLRip] Северский музыкальный театр


 

[Цитировать]

Исаак Дунаевский - Белая акация Название театра: Северский музыкальный театр.
Год выпуска: 2009.
Жанр: Оперетта.
Продолжительность: 02:18:26.
Режиссер-постановщик: Ирина Каратаева.
Режиссер восстановления: заслуженный артист России Владимир Филимонов.
В ролях: артисты театра.
Описание:
"Белая акация" - это последнее произведение Исаака Дунаевского, его "лебединая песня", над которой он работал весной и летом 1955 года, но так и не успел закончить (жизнь великого советского композитора оборвалась 25 июля 1955 г.) Завершил работу И. Дунаевского по его наброскам Кирилл Владимирович Молчанов.
Оперетта с советским лейтмотивом ставилась многими музыкальными театрами учреждениями страны. В Северском музыкальном театре первый раз она была поставлена в 1958 году (режиссер - Б.Заяц). Затем, в 2009 году, в рекордные сроки спектакль был вновь восстановлен в СМТ барнаульским режиссером, заслуженным артистом России Владимиром Филимоновым.

Дополнительная информация:
Страна: Россия .
Композитор: Исаак Дунаевский.
Либретто: Владимир Масс и Михаил Червинский.
Главный дирижер: заслуженный деятель искусств России Валерий Ермошкин.
Главный художник: заслуженный художник России Виктор Акимов.
Главный балетмейстер: Виталий Белобородов.
Главный хормейстер: Елена Кулакова.
Художественный руководитель театра: заслуженный деятель искусств России Валерий Ермошкин.

О спектакле.
Релиз
Рип sharky.

Качество видео:...WEB-DLRip
Формат:.................AVI
Видео:..704x400 (1.76:1), 25 fps, XviD build 47 ~1299 kbps avg, 0.18 bit/pixel
Аудио:..48 kHz, AC3 Dolby Digital, 2/0 (L,R) ch, ~192 kbps

Отчет MediaInfo

Общее
Полное имя : Belaya.akaciya_Severskij.muz.teatr.2009.XviD.WEB-DLRip.fenixclub.avi
Формат : AVI
Формат/Информация : Audio Video Interleave
Размер файла : 1,45 Гбайт
Продолжительность : 2 ч. 18 м.
Общий поток : 1502 Кбит/сек
Программа кодирования : VirtualDubMod 1.5.10.2 (build 2540/release)
Библиотека кодирования : VirtualDubMod build 2540/release
Видео
Идентификатор : 0
Формат : MPEG-4 Visual
Профиль формата : Advanced Simple@L5
Параметр BVOP формата : 1
Параметр QPel формата : Нет
Параметр GMC формата : Без точки перехода
Параметр матрицы формата : Default (H.263)
Идентификатор кодека : XVID
Идентификатор кодека/Подсказка : XviD
Продолжительность : 2 ч. 18 м.
Битрейт : 1300 Кбит/сек
Ширина : 704 пикселя
Высота : 400 пикселей
Соотношение сторон : 16:9
Частота кадров : 25,000 кадров/сек
Цветовое пространство : YUV
Субдискретизация насыщенности : 4:2:0
Битовая глубина : 8 бит
Тип развёртки : Прогрессивная
Метод сжатия : С потерями
Бит/(Пиксели*Кадры) : 0.185
Размер потока : 1,26 Гбайт (87%)
Библиотека кодирования : XviD 1.2.0.dev47 (UTC 2006-11-01)
Аудио
Идентификатор : 1
Формат : AC-3
Формат/Информация : Audio Coding 3
Расширение режима : CM (complete main)
Параметр Endianness формата : Big
Идентификатор кодека : 2000
Продолжительность : 2 ч. 18 м.
Вид битрейта : Постоянный
Битрейт : 192 Кбит/сек
Каналы : 2 канала
Расположение каналов : Front: L R
Частота : 48,0 КГц
Битовая глубина : 16 бит
Метод сжатия : С потерями
Размер потока : 190 Мбайт (13%)
Выравнивание : Разделение по промежуткам
Продолжительность промежутка : 40 мс. (1,00 видеокадр)
Время предзагрузки промежутка : 500 мс.

Скриншоты


Альтернативный хост





Показать сообщения:    

Текущее время: 10-Дек 09:58

Часовой пояс: UTC + 3


Вы не можете начинать темы
Вы не можете отвечать на сообщения
Вы не можете редактировать свои сообщения
Вы не можете удалять свои сообщения
Вы не можете голосовать в опросах
Вы не можете прикреплять файлы к сообщениям
Вы не можете скачивать файлы