Морис Равель / Maurice Ravel - Дитя и волшебство / L’enfant et les sortileges (Н.Поставничева, Т.Боровикова, В.Долгалло, В.Лукашевич, А.Маликов, Т.Боровикова, В.Долгалло, Г. Рождественский, реж. Вильям Рощин) [1965 г., опера-балет, TVRip]


 

[Цитировать]

Дитя и волшебствоГод выпуска: 1965.
Жанр: лирическая фантазия, опера-балет, телеспектакль.
Продолжительность: 00:43:06.
Режиссер: Вильям Рощин.
В главной роли - Ольга Волкова.
Вокальная партия - Нина Поставничева.
Исполнители:
Т.Боровикова, В.Долгалло, В.Лукашевич, А.Маликов, А Мирецкий, В Муханова, А.Панова, Г.Покрышкина, Г.Полюх, Н.Яськова.
Описание:
"Дитя и волшебство" - это лирическая фантазия, как определял ее сам композитор. Равель переложил на музыку историю французской писательницы Габриель Колетт об очень непослушном и неприятном мальчике. Однажды ночью все сломанные им игрушки и обитатели сада - бабочки, лягушки и прочая мелюзга, которых он мучил, - ожили и объединились, чтобы отомстить ему.
Доп. информация:
Страна: СССР .
Киностудия: Ленинградское ТВ.
Автор: Габриель Колетт.
Оператор: Роман Черняк.
Композитор: Морис Равель.
Художник: Г. Левкович.
Балетмейстер: К. Боярский.
Артисты балета Ленинградского государственного академического Малого Театра оперы и балета.
Солисты, хор и оркестр Всесоюзного радио и Центрального телевидения.
Дирижер:
Геннадий Рождественский.

Релиз.....
Качество: TVRip
Формат: AVI
Видео: 704x528 (1.33:1), 25 fps, XviD MPEG-4 ~1430 kbps avg, 0.15 bit/pixel
Аудио: 48 kHz, MPEG Layer 3, 2 ch, ~128.00 kbps avg

Отчет MI

Общее
Полное имя : Ditya.i.volshebstvo.1965.XviD.TVRip.fenixclub.avi
Формат : AVI
Формат/Информация : Audio Video Interleave
Размер файла : 484 Мбайт
Продолжительность : 43 м.
Общий поток : 1568 Кбит/сек
Программа кодирования : VirtualDubModRus 1.5.10.2 (build 2542/release)
Библиотека кодирования : VirtualDub build 32842/release
Видео
Идентификатор : 0
Формат : MPEG-4 Visual
Профиль формата : Advanced Simple@L5
Параметр BVOP формата : 2
Параметр QPel формата : Нет
Параметр GMC формата : Без точки перехода
Параметр матрицы формата : Default (H.263)
Режим смешивания : Сжатый битовый поток
Идентификатор кодека : XVID
Идентификатор кодека/Подсказка : XviD
Продолжительность : 43 м.
Битрейт : 1431 Кбит/сек
Ширина : 704 пикселя
Высота : 528 пикселей
Соотношение сторон : 4:3
Частота кадров : 25,000 кадров/сек
Цветовое пространство : YUV
Субдискретизация насыщенности : 4:2:0
Битовая глубина : 8 бит
Тип развёртки : Прогрессивная
Метод сжатия : С потерями
Бит/(Пиксели*Кадры) : 0.154
Размер потока : 441 Мбайт (91%)
Библиотека кодирования : XviD 1.2.1 (UTC 2008-12-04)
Аудио
Идентификатор : 1
Формат : MPEG Audio
Версия формата : Version 1
Профиль формата : Layer 3
Режим : Joint stereo
Расширение режима : MS Stereo
Идентификатор кодека : 55
Идентификатор кодека/Подсказка : MP3
Продолжительность : 43 м.
Вид битрейта : Постоянный
Битрейт : 128 Кбит/сек
Каналы : 2 канала
Частота : 48,0 КГц
Метод сжатия : С потерями
Размер потока : 39,5 Мбайт (8%)
Выравнивание : Разделение по промежуткам
Продолжительность промежутка : 40 мс. (1,00 видеокадр)
Время предзагрузки промежутка : 500 мс.

Скриншоты

Альтернативный хост




Показать сообщения:    

Текущее время: 06-Дек 17:11

Часовой пояс: UTC + 3


Вы не можете начинать темы
Вы не можете отвечать на сообщения
Вы не можете редактировать свои сообщения
Вы не можете удалять свои сообщения
Вы не можете голосовать в опросах
Вы не можете прикреплять файлы к сообщениям
Вы не можете скачивать файлы