Иоганн Штраус / Johann Strauss - Летучая мышь (Татьяна Константинова) [2013 г., оперетта, SATRip] Учебный театр Театрального института имени Бориса Щукина


 

[Цитировать]

Летучая мышь Название театра: Учебный театр Театрального института имени Бориса Щукина при государственном академическом театре имени Евг. Вахтангова.
Год выпуска: 2013.
Жанр: оперетта.
Продолжительность: 01:52:39.
Режиссер: народная артистка России Татьяна Константинова.
Действующие лица и исполнители:
Розалинда - Ирина Позднякова,
Адель - Дина Морозова,
Генрих - Василий Ремчуков,
Альфред - Александр Бабик,
Фальк - Давид Ванесян,
Блинд - Игорь Оробей,
Франк - Глеб Косихин,
Лота - Христина Полуянова,
Грета - Вита Пестова,
Орловский - Марина Торхова,
Дежурный - Юрий Балуев.
О спектакле:
"Летучая мышь" - дипломная постановка выпускников экспериментального музыкального курса театрального института имени Бориса Щукина, итог работы за пять лет. Этот спектакль идет во всех оперных театрах мира и считается одним из самых сложных в плане вокала. По мнению режиссера, Татьяны Константиновой, для оперетты, "Летучую мышь" поставить - как в драме на Шекспира "замахнуться". Хотя, добавила режиссер, где, как не в институте, поиграть все самое сложное - выпускники достойно справляются со всем, что делают.
Дополнительная информация:
Страна: Россия .
Композитор: Иоганн Штраус.
Либретто: Николай Эрдман.
Стихи: Михаил Вольпин.
По мотивам водевиля Анри Мельяка и Людовика Галеви «Бал в сочельник или Часы с боем».
Хореограф: Т. Серебренникова.
Художник: Г.А. Белов.
Руководители курса: народный артист России, профессор Евгений Владимирович Князев и заслуженный деятель искусств России Владимир Тартаковский.
Художественный руководитель института: народный артист СССР профессор Владимир Абрамович Этуш.
Ректор института: народный артист России, профессор Евгений Владимирович Князев.

Релиз
Огромное спасибо Доброму человеку за предоставленый материал!!!

Качество видео:...SATRip
Формат:.................AVI
Видео:..720x400 (1.80:1), 25 fps, XviD MPEG-4 ~1626 kbps avg, 0.23 bit/pixel
Аудио:..48 kHz, AC3 Dolby Digital, 2/0 (L,R) ch, ~192 kbps

Отчет MediaInfo

General
Complete name : Letuchaya.mysh'.Teatr.institut.Wukina.2013.XviD.SATRip.fenixclub.avi
Format : AVI
Format/Info : Audio Video Interleave
File size : 1.44 GiB
Duration : 1h 52mn
Overall bit rate : 1 828 Kbps
Writing application : VirtualDubMod 1.5.10.3 | www.virtualdub-fr.org || (build 2550/release)
Writing library : VirtualDub build 32842/release
Video
ID : 0
Format : MPEG-4 Visual
Format profile : Advanced Simple@L5
Format settings, BVOP : 2
Format settings, QPel : No
Format settings, GMC : No warppoints
Format settings, Matrix : Default (H.263)
Muxing mode : Packed bitstream
Codec ID : XVID
Codec ID/Hint : XviD
Duration : 1h 52mn
Bit rate : 1 626 Kbps
Width : 720 pixels
Height : 400 pixels
Display aspect ratio : 16:9
Frame rate : 25.000 fps
Color space : YUV
Chroma subsampling : 4:2:0
Bit depth : 8 bits
Scan type : Progressive
Compression mode : Lossy
Bits/(Pixel*Frame) : 0.226
Stream size : 1.28 GiB (89%)
Writing library : XviD 1.2.1 (UTC 2008-12-04)
Audio
ID : 1
Format : MPEG Audio
Format version : Version 1
Format profile : Layer 3
Codec ID : 55
Codec ID/Hint : MP3
Duration : 1h 52mn
Bit rate mode : Constant
Bit rate : 192 Kbps
Channel(s) : 2 channels
Sampling rate : 48.0 KHz
Compression mode : Lossy
Stream size : 155 MiB (11%)
Alignment : Aligned on interleaves
Interleave, duration : 40 ms (1.00 video frame)
Interleave, preload duration : 504 ms

Скриншоты

Альтернативный хост




Показать сообщения:    

Текущее время: 11-Дек 01:28

Часовой пояс: UTC + 3


Вы не можете начинать темы
Вы не можете отвечать на сообщения
Вы не можете редактировать свои сообщения
Вы не можете удалять свои сообщения
Вы не можете голосовать в опросах
Вы не можете прикреплять файлы к сообщениям
Вы не можете скачивать файлы