В честь Елены Образцовой. Гала-концерт в Большом театре России [2013, concert, DVB-AVC]


 

[Цитировать]

В честь Елены Образцовой. Гала-концерт в Большом театре России
Год выпуска: 2013
Жанр: concert
Продолжительность: 01:32:02
Режиссер/Хореограф: Дмитрий Бертман
Исполнители:
Елена Образцова, Маквала Касрашвили, Зураб Соткилава, Хибла Герзмава, Максим Миронов, Александр Цымбалюк, Юлия Лежнева, Динара Алиева, Вероника Джиоева, Дмитрий Корчак, Василий Ладюк, Ольга Пудова.
В концерте так же приняли участие Оркестр и хор Большого театра, дирижер Михаил Татарников, Московский камерный хор под руководством Владимира Минина, балерина Большого театра Евгения Образцова и пианист Денис Мацуев.
Описание: Концерт, посвященный 50-летию творческой деятельности Елены Образцовой. Запись в Большом театре
Качество видео: DVB-AVC
Формат/Контейнер: MKV
Видео кодек: H.264
Аудио кодек: MP2
Видео поток: 720х576(4:3), обрезка средствами контейнера до 720x432 (работает в некоторых плеерах) 50fps 1186 Kbps
Аудио поток: 48000Hz 2 ch mono 160 Kbps

Треклист

Оркестр и хор ГАБТ, дирижер Михаил Татарников
М.Мусоргский. Полонез из оперы "Борис Годунов"
П.Чайковский. Хор Приживалок из оперы "Пиковая дама"
Елена Образцова
П.Чайковский. Выход Графини из оперы "Пиковая дама"
Ж.Оффенбах. Куплеты Периколы из оперетты "Перикола"
Маквала Касрашвили
П.Масканьи. Ария Сантуццы из оперы "Сельская честь"
Зураб Соткилава
Э. Куртис, Д.Фурио. "Я так люблю тебя"
Хибла Герзмава
В.Беллини. Каватина Нормы из оперы "Норма"
Василий Ладюк
П.Чайковский. Ария Роберто из оперы "Иоланта"
Динара Алиева
Дж.Верди. Ария Аиды из оперы "Аида"
Максим Миронов
Г.Доницетти. Ария Тонио из оперы "Дочь полка"
Александр Цымбалюк
А.Бойто. Ария Мефистофеля из оперы "Мефистофель"
Юлия Лежнева
Дж.Россини. Ария Елены из оперы "Дева озера"
Московский государственный академический камерный хор п/у Владимира Минина
С.Рахманинов. "Шестопсалмие" из "Всенощного бдения"
Оркестр ГАБТ, дирижер Михаил Татарников
Ж.Бизе. Увертюра к опере "Кармен"
Евгения Образцова
П.Чайковский. "Сентиментальный вальс" (Хореография Владимира Васильева)
Дмитрий Корчак
Г.Доницетти. Романс Неморино из оперы "Любовный напиток"
Вероника Джиоева
Дж.Верди. Ария Леоноры из оперы "Трубадур"
Ольга Пудова
Л.Бернстайн. Ария Кунигунды из мюзикла "Кандид"
Елена Образцова, Анатолия Кузнецов (ф-но)
Р.Хан, П.Верлен. "Аллея без конца"
Денис Мацуев
П.Чайковский. "Размышление"
Елена Образцова, Илья Говзич
Дж.Верди. Дуэт Манрико и Азучены из оперы "Трубадур"
Оркестр ГАБТ, Хор Академии хорового искусства имени В.Попова
Дж.Верди. Триумфальный марш из оперы "Аида"

MI

Format : Matroska
Format version : Version 4 / Version 2
File size : 904 MiB
Duration : 1h 32mn
Overall bit rate mode : Constant
Overall bit rate : 1 373 Kbps
Encoded date : UTC 2014-03-22 08:32:29
Writing application : mkvmerge v6.1.0 ('Old Devil') built on Mar 4 2013 09:10:42
Writing library : libebml v1.3.0 + libmatroska v1.4.0
Video
ID : 1
Format : AVC
Format/Info : Advanced Video Codec
Format profile : Main@L3.0
Format settings, CABAC : Yes
Format settings, ReFrames : 3 frames
Codec ID : V_MPEG4/ISO/AVC
Duration : 1h 32mn
Bit rate mode : Constant
Bit rate : 1 186 Kbps
Nominal bit rate : 1 300 Kbps
Width : 720 pixels
Height : 576 pixels
Display aspect ratio : 4:3
Frame rate mode : Constant
Frame rate : 25.000 fps
Standard : PAL
Color space : YUV
Chroma subsampling : 4:2:0
Bit depth : 8 bits
Scan type : Interlaced
Bits/(Pixel*Frame) : 0.114
Stream size : 781 MiB (86%)
Default : Yes
Forced : No
Color primaries : BT.601 PAL
Transfer characteristics : BT.470 System B, BT.470 System G
Matrix coefficients : BT.601
Audio
ID : 2
Format : MPEG Audio
Format version : Version 1
Format profile : Layer 2
Codec ID : A_MPEG/L2
Codec ID/Hint : MP2
Duration : 1h 32mn
Bit rate mode : Constant
Bit rate : 160 Kbps
Channel(s) : 2 channels
Sampling rate : 48.0 KHz
Compression mode : Lossy
Delay relative to video : 5ms
Stream size : 105 MiB (12%)
Default : Yes
Forced : No

Скриншоты




Показать сообщения:    

Текущее время: 04-Дек 00:51

Часовой пояс: UTC + 3


Вы не можете начинать темы
Вы не можете отвечать на сообщения
Вы не можете редактировать свои сообщения
Вы не можете удалять свои сообщения
Вы не можете голосовать в опросах
Вы не можете прикреплять файлы к сообщениям
Вы не можете скачивать файлы