Massenet - Werther / Массне - Вертер ( Alain Altinoglu, Jonas Kaufmann, Sophie Koch, Lisette Oropesa, David Bizic ) [2014, opera, HDRip]


 

[Цитировать]

Massenet - Werther / Массне - Вертер
Год выпуска: 2014
Жанр: opera
Продолжительность: 2:49:17
Язык: French
Субтитры: .srt: Eng, Fre, Ger, Ita, Por, Rus, Spa, Swe
Режиссер: Richard Eyre
Дирижер: Alain Altinoglu
Исполнители:
Werther - Jonas Kaufmann
Sophie - Lisette Oropesa
Charlotte - Sophie Koch
Albert - David Bižić
Le Bailli - Jonathan Summers
Production - Richard Eyre
Set & Costume Designer - Rob Howell
Lighting Designer - Peter Mumford
Video Designer - Wendall Harrington
Choreographer - Sara Erde
Качество видео: HDRip
Формат/Контейнер: MKV
Видео кодек: H.264
Аудио кодек: AC3
Видео поток: 960x540 25fps 1388 Kbps
Аудио поток: AC3 48000Hz 6ch 448 Kbps

MI

Format : Matroska
Format version : Version 2
File size : 1.17 GiB
Duration : 1h 29mn
Overall bit rate : 1 873 Kbps
Movie name : 1 Part I
Encoded date : UTC 2014-03-18 10:56:34
Writing application : mkvmerge v6.1.0 ('Old Devil') built on Mar 4 2013 09:10:42
Writing library : libebml v1.3.0 + libmatroska v1.4.0
Video
ID : 1
Format : AVC
Format/Info : Advanced Video Codec
Format profile : High@L4.1
Format settings, CABAC : Yes
Format settings, ReFrames : 8 frames
Codec ID : V_MPEG4/ISO/AVC
Duration : 1h 29mn
Bit rate : 1 388 Kbps
Width : 960 pixels
Height : 540 pixels
Display aspect ratio : 16:9
Frame rate mode : Constant
Frame rate : 25.000 fps
Color space : YUV
Chroma subsampling : 4:2:0
Bit depth : 8 bits
Scan type : Progressive
Bits/(Pixel*Frame) : 0.107
Stream size : 885 MiB (74%)
Writing library : x264 core 130 r2273 b3065e6
Encoding settings : cabac=1 / ref=8 / deblock=1:-1:-1 / analyse=0x3:0x133 / me=umh / subme=9 / psy=1 / psy_rd=1.00:0.10 / mixed_ref=1 / me_range=24 / chroma_me=1 / trellis=2 / 8x8dct=1 / cqm=0 / deadzone=21,11 / fast_pskip=1 / chroma_qp_offset=-3 / threads=6 / lookahead_threads=1 / sliced_threads=0 / nr=0 / decimate=1 / interlaced=0 / bluray_compat=0 / constrained_intra=0 / bframes=3 / b_pyramid=2 / b_adapt=2 / b_bias=0 / direct=3 / weightb=1 / open_gop=0 / weightp=2 / keyint=250 / keyint_min=25 / scenecut=40 / intra_refresh=0 / rc_lookahead=60 / rc=crf / mbtree=1 / crf=19.0 / qcomp=0.60 / qpmin=0 / qpmax=69 / qpstep=4 / ip_ratio=1.40 / aq=1:1.00
Default : Yes
Forced : No
Audio
ID : 2
Format : AC-3
Format/Info : Audio Coding 3
Mode extension : CM (complete main)
Format settings, Endianness : Big
Codec ID : A_AC3
Duration : 1h 29mn
Bit rate mode : Constant
Bit rate : 448 Kbps
Channel(s) : 6 channels
Channel positions : Front: L C R, Side: L R, LFE
Sampling rate : 48.0 KHz
Bit depth : 16 bits
Compression mode : Lossy
Stream size : 286 MiB (24%)
Language : French
Default : Yes
Forced : No

Скриншоты




Показать сообщения:    

Текущее время: 04-Дек 17:20

Часовой пояс: UTC + 3


Вы не можете начинать темы
Вы не можете отвечать на сообщения
Вы не можете редактировать свои сообщения
Вы не можете удалять свои сообщения
Вы не можете голосовать в опросах
Вы не можете прикреплять файлы к сообщениям
Вы не можете скачивать файлы