М.Глинка - Руслан и Людмила / M.Glinka - Ruslan and Ludmila ( Петренко, Шагимуратова, Черняков, Юровский) [2011, opera, HDTVRip] Большой театр, Mezzo Live HD


 

[Цитировать]

М.Глинка - Руслан и Людмила / M.Glinka - Ruslan and Ludmila / Bolshoi, Д.Черняков
Год выпуска: 2011
Жанр: opera
Продолжительность: 3:17:37
Язык: Русский
Субтитры: Неотключаемые французские
Режиссер: Дмитрий Черняков
Дирижер: Владимир Юровский
Исполнители:
Светозар, великий князь киевский - Владимир Огновенко
Людмила, его дочь - Альбина Шагимуратова
Руслан, витязь, жених Людмилы - Михаил Петренко
Ратмир, князь хазарский - Юрий Миненко
Фарлаф, витязь варяжский - Алмас Швилпа
Горислава, пленница Ратмира - Александрина Пендачанска
Финн, добрый волшебник / Баян, сказитель - Чарльз Уоркман
Наина, злая волшебница - Елена Заремба
Голова - Александр Полковников
Хор и оркестр Большого театра
Описание: Историческая сцена Большого театра после 6-летней реконструкции открылась именно этой оперной премьерой.
Доп. информация: Рип раздачи http://teatrix.ru/viewtopic.php?t=3864 (спасибо, Peer Seed)
Запись с эфира Mezzo Live HD 13 и 15 февраля 2014.
Качество видео: HDTVRip
Формат/Контейнер: MKV
Видео кодек: H.264
Аудио кодек: MP2
Видео поток: 960x540 25fps 2 882 Kbps
Аудио поток: MP2, 192 kbps, 48 kHz, 2.0

MI

Format : Matroska
Format version : Version 2
File size : 4.33 GiB
Duration : 3h 17mn
Overall bit rate : 3 137 Kbps
Encoded date : UTC 2014-02-27 04:24:46
Writing application : mkvmerge v6.1.0 ('Old Devil') built on Mar 4 2013 09:10:42
Writing library : libebml v1.3.0 + libmatroska v1.4.0
Video
ID : 1
Format : AVC
Format/Info : Advanced Video Codec
Format profile : High@L4.1
Format settings, CABAC : Yes
Format settings, ReFrames : 8 frames
Codec ID : V_MPEG4/ISO/AVC
Duration : 3h 17mn
Bit rate : 2 882 Kbps
Width : 960 pixels
Height : 540 pixels
Display aspect ratio : 16:9
Frame rate mode : Constant
Frame rate : 25.000 fps
Color space : YUV
Chroma subsampling : 4:2:0
Bit depth : 8 bits
Scan type : Progressive
Bits/(Pixel*Frame) : 0.222
Stream size : 3.98 GiB (92%)
Writing library : x264 core 130 r2273 b3065e6
Encoding settings : cabac=1 / ref=8 / deblock=1:-1:-1 / analyse=0x3:0x133 / me=umh / subme=9 / psy=1 / psy_rd=1.00:0.10 / mixed_ref=1 / me_range=24 / chroma_me=1 / trellis=2 / 8x8dct=1 / cqm=0 / deadzone=21,11 / fast_pskip=1 / chroma_qp_offset=-3 / threads=6 / lookahead_threads=1 / sliced_threads=0 / nr=0 / decimate=1 / interlaced=0 / bluray_compat=0 / constrained_intra=0 / bframes=3 / b_pyramid=2 / b_adapt=2 / b_bias=0 / direct=3 / weightb=1 / open_gop=0 / weightp=2 / keyint=250 / keyint_min=25 / scenecut=40 / intra_refresh=0 / rc_lookahead=60 / rc=crf / mbtree=1 / crf=18.0 / qcomp=0.60 / qpmin=0 / qpmax=69 / qpstep=4 / ip_ratio=1.40 / aq=1:1.00
Default : Yes
Forced : No
Audio
ID : 2
Format : MPEG Audio
Format version : Version 1
Format profile : Layer 2
Codec ID : A_MPEG/L2
Codec ID/Hint : MP2
Duration : 3h 17mn
Bit rate mode : Constant
Bit rate : 192 Kbps
Channel(s) : 2 channels
Sampling rate : 48.0 KHz
Compression mode : Lossy
Stream size : 271 MiB (6%)
Language : English
Default : Yes
Forced : No

Скриншоты




Показать сообщения:    

Текущее время: 09-Дек 01:07

Часовой пояс: UTC + 3


Вы не можете начинать темы
Вы не можете отвечать на сообщения
Вы не можете редактировать свои сообщения
Вы не можете удалять свои сообщения
Вы не можете голосовать в опросах
Вы не можете прикреплять файлы к сообщениям
Вы не можете скачивать файлы