Шлягеры неаполитанского квартала (Сусанна Цирюк) [2011 г., Беларусь, музыкальное ревю, WEB-DLRip] Белорусский государственный академический музыкальный театр


 

[Цитировать]

Шлягеры неаполитанского квартала Театр: Белорусский государственный академический музыкальный театр.
Год выпуска: 2011.
Жанр: музыкальное ревю.
Продолжительность: 00:41:52.
Режиссер: Сусанна Цирюк.
Действующие лица и исполнители:
Хозяин кабачка - Анзор Алимирзоев,
Мафиози - Евгений Ермаков,
Первая любовь мафиози - Ксения Глушко,
Влюбленный солдат - Андрей Морозов,
Его подруга - Анна Беляева,
Цветочница - Алла Лукашевич,
Кающаяся грешница - Лидия Кузьмицкая,
Девушка-почтальон - Маргарита Александрович,
Девушка в матроске - Наталья Дементьева,
Обманутый муж - Денис Немцов,
Жена - Алеся Булеца,
Любовник - Игорь Вершинин,
Горожане, бандиты, посетители кабачка — артисты хора театра.
О спектакле:
Италия — страна с замечательными музыкальными традициями, ее называют колыбелью оперного искусства. Впрочем, не стоит забывать и о том, что она подарила миру еще и удивительные неаполитанские песни. Слава этого жанра и по сей день остается неизменной. Такие жемчужины итальянской песенной лирики, как "О, мое солнце" ( 'O sole miо) , "Влюбленный солдат" ( 'O surdato 'nnammurato), "На качелях" ( Funiculi funicula) стали всемирно известными и вошли в репертуар лучших исполнителей.
Музыкальное ревю "Шлягеры неаполитанского квартала" — это один день из жизни небольшого итальянского городка, где из каждого окна слышны солнечные неаполитанские песни: эмоциональные, искрящиеся жизненной энергией, пронзительно нежные и чувственные. Общей и неизменной для всех этих маленьких музыкальных шедевров остается тема, актуальная во все времена, — любовь!

Дополнительная информация:
Страна: Беларусь .
Музыкальный руководитель: Олег Лесун.
Дирижер-постановщик: Николай Макаревич.
Сценическая версия: Сусанны Цирюк.
Балетмейстер-постановщик: Александра Тихомирова (Россия).
Сценография: Любовь Сидельнокова.
Художник по свету: Ирина Вторникова (Россия).
Хормейстер-постановщик: Светлана Петрова.
В спектакле использована музыка: Карло Бадиа, Надира Виетти, Луиджи Денца, Энрике Канио, Эдуардо ди Капуа, Джулио Каччини, Эрнесто Де Куртиса, Винченцо Кьяра, Эмануэле Нутиле, Руджеро Леонкавалло, Джоаккино Россини, Валерия Гаврилина.
Премьера спектакля состоялась 20 июля 2011 года.

О спектакле.
Релиз
Рип sharky.
Качество видео:...WEB-DLRip
Формат:.................AVI
Видео:..704x400 (1.76:1), 25 fps, XviD build 50 ~2126 kbps avg, 0.30 bit/pixel
Аудио:..48 kHz, AC3 Dolby Digital, 2/0 (L,R) ch, ~192 kbps

Отчет Media Info

General
Complete name : Shlyagery.neapolitanskogo.kvartala.2011.XviD.WEB-DLRip.fenixclub.avi
Format : AVI
Format/Info : Audio Video Interleave
File size : 697 MiB
Duration : 41mn 52s
Overall bit rate : 2 329 Kbps
Writing application : VirtualDubMod 1.5.10.3 | www.virtualdub-fr.org || (build 2550/release)
Writing library : VirtualDubMod build 2550/release
Video
ID : 0
Format : MPEG-4 Visual
Format profile : Advanced Simple@L5
Format settings, BVOP : 2
Format settings, QPel : No
Format settings, GMC : No warppoints
Format settings, Matrix : Default (H.263)
Muxing mode : Packed bitstream
Codec ID : XVID
Codec ID/Hint : XviD
Duration : 41mn 52s
Bit rate : 2 127 Kbps
Width : 704 pixels
Height : 400 pixels
Display aspect ratio : 16:9
Frame rate : 25.000 fps
Color space : YUV
Chroma subsampling : 4:2:0
Bit depth : 8 bits
Scan type : Progressive
Compression mode : Lossy
Bits/(Pixel*Frame) : 0.302
Stream size : 637 MiB (91%)
Writing library : XviD 1.2.1 (UTC 2008-12-04)
Audio
ID : 1
Format : AC-3
Format/Info : Audio Coding 3
Mode extension : CM (complete main)
Format settings, Endianness : Big
Codec ID : 2000
Duration : 41mn 52s
Bit rate mode : Constant
Bit rate : 192 Kbps
Channel count : 2 channels
Channel positions : Front: L R
Sampling rate : 48.0 KHz
Bit depth : 16 bits
Compression mode : Lossy
Stream size : 57.5 MiB (8%)
Alignment : Split accross interleaves
Interleave, duration : 40 ms (1.00 video frame)
Interleave, preload duration : 500 ms

Скриншоты


Альтернативный хост





Показать сообщения:    

Текущее время: 08-Дек 09:05

Часовой пояс: UTC + 3


Вы не можете начинать темы
Вы не можете отвечать на сообщения
Вы не можете редактировать свои сообщения
Вы не можете удалять свои сообщения
Вы не можете голосовать в опросах
Вы не можете прикреплять файлы к сообщениям
Вы не можете скачивать файлы