Большая опера. Второй сезон. Гала-концерт в Большом зале Консерватории [2014, opera, concert, DVB-AVC]


 

[Цитировать]

Большая опера. Второй сезон. Гала-концерт в Большом зале Консерватории
Год выпуска: 2014
Лейбл: тв Культура
Жанр: opera, concert
Продолжительность: 01:52:47
Режиссер: Анастасия Синельникова
Исполнители: Владимир Магомадов, Павел Червинский, Арсен Степанян, Алексей Исаев, Дарья Терехова, Евгения Сотникова, Екатерина Арну, Юлия Меннибаева; Василий Герелло, Василий Ладюк, Динара Алиева, Аскар Абдразаков, Вероника Джиоева, Александр Миминошвили, Сергей Плюснин
Дирижеры: Владимир Федосеев, Фабио Мастранжело.
Описание: Гала-концерт проекта "Большая опера" состоялся в Большом зале Московской консерватории. В этом ярком концерте выступают участники и гости проекта "Большая опера". В программе концерта арии из русских и западноевропейских опер, неаполитанские песни. В концерте принимает участие Большой симфонический оркестр им.П.И.Чайковского.
Ведущие Алла Сигалова и Святослав Бэлза.
Треклист:
1. Бизе - Увертюра к опере Кармен - Большой симфонический оркестр им. П.И.Чайковского
2. Моцарт - ария Фигаро из оперы "Свадьба Фигаро" - Павел Червинский
3. Римский-Корсаков - ария Марфы из оперы "Царская невеста" - Евгения Сотникова
4. ди Ладзаро - "Римская гитара" - Василий Герелло
5. Чилеа - ария Принцессы де Буйон из оперы "Адриена Лекуврер" - Екатерина Арну
6. Гуно - вальс Джульетты из оперы "Ромео и Джульетта" - Дарья Терехова
7. Мусоргский - песня Варлаама из оперы "Борис Годунов" - Сергей Замыцкий
8. Верди - ария Аиды из оперы "Аида" - Динара Алиева
9. Оффенбах - баркарола из оперы "Сказки Гофмана" - Алина Яровая, Ксения Дудникова
10. Легар - ария принца Су-Хонга из оперетты "Страна улыбок" - Арсен Степанян
11. Моцарт - дуэт из оперы "Милосердие Тита" - Владимир Магомадов, Яна Меликаева
12. Верди - ария Леоноры из оперы "Трубадур" - Вероника Джиоева
13. Верди - ария Ренато из оперы "Бал-маскарад" - Алексей Исаев
14. Глинка - ария Вани из оперы "Жизнь за царя" - Юлия Меннибаева
15. ди Куртиса - "Мне не забыть тебя" - Александр Миминошвили, Сергей Плюснин
16. Легар - дуэт из оперетты "Веселая вдова" - Арсен Степанян, Алексей Исаев, Дарья Терехова
17. Бородин - ария Кончака из оперы "Князь Игорь" - Аскар Абдразаков
18. Россини - каватина Фигаро из оперы "Сивильский Цирюльник" - Василий Ладюк
19. Денца - "На качелях" - Владимир Магомадов
20. Пуччини ария Калафа из оперы "Турандот" - Владимир Магомадов, Павел Червинский, Арсен Степанян, Алексей Исаев, Дарья Терехова, Евгения Сотникова, Екатерина Арну, Юлия Меннибаева
Качество видео: DVB-AVC
Формат/Контейнер: MKV
Видео кодек: H.264
Аудио кодек: MP2
Видео поток: 720x576 (4:3) 50fps 1210 Kbps
Аудио поток: 48000Hz 2ch mono 160 kbps

MI

Format : Matroska
Format version : Version 4 / Version 2
File size : 1.10 GiB
Duration : 1h 52mn
Overall bit rate mode : Constant
Overall bit rate : 1 398 Kbps
Encoded date : UTC 2014-01-07 16:58:00
Writing application : mkvmerge v6.1.0 ('Old Devil') built on Mar 4 2013 09:10:42
Writing library : libebml v1.3.0 + libmatroska v1.4.0
Video
ID : 1
Format : AVC
Format/Info : Advanced Video Codec
Format profile : Main@L3.0
Format settings, CABAC : Yes
Format settings, ReFrames : 3 frames
Codec ID : V_MPEG4/ISO/AVC
Duration : 1h 52mn
Bit rate mode : Constant
Bit rate : 1 210 Kbps
Nominal bit rate : 1 300 Kbps
Width : 720 pixels
Height : 576 pixels
Display aspect ratio : 4:3
Frame rate mode : Constant
Frame rate : 25.000 fps
Standard : PAL
Color space : YUV
Chroma subsampling : 4:2:0
Bit depth : 8 bits
Scan type : Interlaced
Bits/(Pixel*Frame) : 0.117
Stream size : 976 MiB (87%)
Default : Yes
Forced : No
Color primaries : BT.601 PAL
Transfer characteristics : BT.470 System B, BT.470 System G
Matrix coefficients : BT.601
Audio
ID : 2
Format : MPEG Audio
Format version : Version 1
Format profile : Layer 2
Codec ID : A_MPEG/L2
Codec ID/Hint : MP2
Duration : 1h 52mn
Bit rate mode : Constant
Bit rate : 160 Kbps
Channel(s) : 2 channels
Sampling rate : 48.0 KHz
Compression mode : Lossy
Delay relative to video : 5ms
Stream size : 129 MiB (11%)
Default : Yes
Forced : No

Скриншоты




Показать сообщения:    

Текущее время: 04-Дек 21:26

Часовой пояс: UTC + 3


Вы не можете начинать темы
Вы не можете отвечать на сообщения
Вы не можете редактировать свои сообщения
Вы не можете удалять свои сообщения
Вы не можете голосовать в опросах
Вы не можете прикреплять файлы к сообщениям
Вы не можете скачивать файлы