Иоганн Штраус / Johann Strauß - Die Fledermaus / Летучая мышь (Сусанна Цирюк) [2006 г., оперетта, WEB-DLRip] Свердловский государственный академический театр музыкальной комедии г. Екатеринбург


 

[Цитировать]

Летучая мышь Театр: Свердловский государственный академический театр музыкальной комедии г. Екатеринбург.
Год выпуска: 2006.
Жанр: оперетта.
Продолжительность: 02:14:42.
Режиссер: Сусанна Цирюк.
Действующие лица и исполнители:
Генрих фон Айзенштайн - Сергей Вяткин,
Розалинда, его жена - народная артистка России Надежда Басаргина,
Адель, горничная Розалинды - заслуженная артистка России Ирина Цыбина,
Ида, ее сестра - заслуженная артистка России Любовь Бурлакова,
Альфред, учитель пения - Владимир Фомин,
Доктор Фальк, нотариус - Владимир Смолин,
Доктор Блинд, адвокат - Александр Копылов,
Франк, директор тюрьмы - заслуженный артист России Павел Дралов,
Князь Орловский - Михаил Шкинев,
Иностранец - Анатолий Авега,
Иностранка - Татьяна Холопова,
Посол Шотландии Мюррей - Вадим Желонкин,
Нотариус Кисс - Александр Мезюха,
Мелани - Оксана Нежинская,
Фастина - Елена Незванова,
Неизвестный - Валерий Фадиев,
Артисты театра.
Гости и слуги на балу у князя Орловского - артисты хора.
О спектакле:
«Летучую мышь» ставить трудно. Во-первых — с каким текстом? Либретто К. Гафнера и Р. Жене хотя и апробировано не в одном уже отечественном театре, но все же перевешивает версия М. Вольпина и Н. Эрдмана, со знаменитым диалогом про собаку Эмму, без которого «Мышь» уже вроде и не «Мышь». Правда, там мотивировки другие, причинно-следственные связи… В свое время удачную компиляцию оригинала и русской версии сделал А. Кордунер. Вот она — не без поправок — и легла в основу спектакля.
Дополнительная информация:
Страна: Россия .
Композитор: Иоганн Штраус.
Либретто: К. Гафнера и Р. Жене.
Дирижер: Александр Гойхман.
Художник: Зиновий Марголин.

Релиз
Рип sharky.

Качество видео:...WEB-DLRip
Формат:.................AVI
Видео:..704x528 (1.33:1), 25 fps, XviD build 50 ~1339 kbps avg, 0.14 bit/pixel
Аудио:..48 kHz, AC3 Dolby Digital, 2/0 (L,R) ch, ~192 kbps

Отчет Media Info

General
Complete name : Letu4aya.mysh.Ekaterinburg.2006.XviD.WEB-DLRip.fenixclub.avi
Формат : AVI
Формат/Информация : Audio Video Interleave
Размер файла : 1,45 Гбайт
Продолжительность : 2 ч. 14 м.
Общий поток : 1541 Кбит/сек
Программа кодирования : VirtualDubMod 1.5.10.3 | www.virtualdub-fr.org || (build 2550/release)
Библиотека кодирования : VirtualDubMod build 2550/release
Видео
Идентификатор : 0
Формат : MPEG-4 Visual
Профиль формата : Advanced Simple@L5
Параметр BVOP формата : 2
Параметр QPel формата : Нет
Параметр GMC формата : Без точки перехода
Параметр матрицы формата : Default (H.263)
Режим смешивания : Сжатый битовый поток
Идентификатор кодека : XVID
Идентификатор кодека/Подсказка : XviD
Продолжительность : 2 ч. 14 м.
Битрейт : 1340 Кбит/сек
Ширина : 704 пикселя
Высота : 528 пикселей
Соотношение сторон : 4:3
Частота кадров : 25,000 кадров/сек
Цветовое пространство : YUV
Субдискретизация насыщенности : 4:2:0
Битовая глубина : 8 бит
Тип развёртки : Прогрессивная
Метод сжатия : С потерями
Бит/(Пиксели*Кадры) : 0.144
Размер потока : 1,26 Гбайт (87%)
Библиотека кодирования : XviD 1.2.1 (UTC 2008-12-04)
Аудио
Идентификатор : 1
Формат : AC-3
Формат/Информация : Audio Coding 3
Расширение режима : CM (complete main)
Параметр Endianness формата : Big
Идентификатор кодека : 2000
Продолжительность : 2 ч. 14 м.
Вид битрейта : Постоянный
Битрейт : 192 Кбит/сек
Каналы : 2 канала
Расположение каналов : Front: L R
Частота : 48,0 КГц
Битовая глубина : 16 бит
Метод сжатия : С потерями
Размер потока : 185 Мбайт (12%)
Выравнивание : Разделение по промежуткам
Продолжительность промежутка : 40 мс. (1,00 видеокадр)
Время предзагрузки промежутка : 500 мс.

Скриншоты


Альтернативный хост





Показать сообщения:    

Текущее время: 07-Дек 23:20

Часовой пояс: UTC + 3


Вы не можете начинать темы
Вы не можете отвечать на сообщения
Вы не можете редактировать свои сообщения
Вы не можете удалять свои сообщения
Вы не можете голосовать в опросах
Вы не можете прикреплять файлы к сообщениям
Вы не можете скачивать файлы