Имре Кальман / Imre Kalman - Die Csardasfurstin / Сильва (Сусанна Цирюк) [2011 г., Беларусь, оперетта, CAMRip] Белорусский государственный академический музыкальный театр


 

[Цитировать]

Сильва Театр: Белорусский государственный академический музыкальный театр.
Год выпуска: 2011.
Жанр: оперетта.
Продолжительность: 01:57:31.
Режиссер: Сусанна Цирюк.
Действующие лица и исполнители:
Сильва Вареску, шансонетка - лауреат международного конкурса Маргарита Александрович,
Князь Эдвин - лауреат международных конкурсов Андрей Морозов,
Бони, граф Канчиану, друг Эдвина - лауреат международного конкурса Денис Немцов,
Ферри, завсегдатай кулис - дипломант международного конкурса Александр Осипец,
Князь Леопольд Веллерсхайм, отец Эдвина - заслуженный артист Республики Беларусь Василий Сердюков,
Княгиня Александра Веллерсхайм, мать Эдвина - народная артистка Республики Беларусь Наталия Гайда,
Графиня Стасси, племянница князя - лауреат международного конкурса Леся Лют,
Мишель, распорядитель в кабаре - Владимир Крупский,
Ронс, лейтенант - Денис Мальцевич,
Кисс, нотариус - лауреат международных конкурсов Олег Прохоров,
Таперша в кабаре - Светлана Мамон,
Артисты кабаре, гости на балу — артисты хора и балета.
О спектакле:
Более девяноста лет прошло с момента премьеры "Сильвы", но история о торжестве любви над сословными предрассудками, написанная с присущим Кальману мелодийным талантом, по-прежнему остается жемчужиной жанра оперетты. Менялось название спектакля, неоднократно перекраивался сюжет. Конечно же, расширялась и география постановок, и теперь уже можно признать: "Сильва" действительно стала опереттой №1 на мировой сцене. Ее мелодии, кажется, приходят к нам еще в детстве и сопровождают на протяжении всей жизни: знаменитая выходная ария Сильвы "Хей-я!" на мотив зажигательного венгерского чардаша, волнующий любовный дуэт "Помнишь ли ты?", темпераментная "Частица черта", игривые куплеты "Без женщин жить нельзя на свете", великолепный марш-ансамбль "Красотки кабаре"…
Дополнительная информация:
Страна: Беларусь .
Композитор: Имре Кальман.
Авторская версия либретто: Сусанна Цирюк.
Стихи Владимира Михайлова и Дмитрия Толмачева.
Дирижер-постановщик: Олег Лесун.
Дирижер: лауреат международного конкурса Юрий Галяс.
Сценография и костюмы: Татьяна Королева (Россия).
Художник по свету: Ирина Вторникова (Россия).
Балетмейстер-постановщик: Елена Дмитриева-Лавринович.
Хормейстер-постановщик: Светлана Петрова.
Премьера спектакля состоялась 26 марта 2011 года.

О спектакле.
Релиз
Рип sharky.

Качество видео:...CAMRip
Формат:.................AVI
Видео:..704x400 (1.76:1), 25 fps, XviD build 50 ~1613 kbps avg, 0.23 bit/pixel
Аудио:..48 kHz, AC3 Dolby Digital, 2/0 (L,R) ch, ~192 kbps

Отчет Media Info

General
Complete name : Sil'va.Belarus'.2011.XviD.CAMRip.fenixclub.avi
Формат : AVI
Формат/Информация : Audio Video Interleave
Размер файла : 1,49 Гбайт
Продолжительность : 1 ч. 57 м.
Общий поток : 1815 Кбит/сек
Программа кодирования : VirtualDubMod 1.5.10.3 | www.virtualdub-fr.org || (build 2550/release)
Библиотека кодирования : VirtualDubMod build 2550/release
Видео
Идентификатор : 0
Формат : MPEG-4 Visual
Профиль формата : Advanced Simple@L5
Параметр BVOP формата : 2
Параметр QPel формата : Нет
Параметр GMC формата : Без точки перехода
Параметр матрицы формата : Default (H.263)
Режим смешивания : Сжатый битовый поток
Идентификатор кодека : XVID
Идентификатор кодека/Подсказка : XviD
Продолжительность : 1 ч. 57 м.
Битрейт : 1614 Кбит/сек
Ширина : 704 пикселя
Высота : 400 пикселей
Соотношение сторон : 16:9
Частота кадров : 25,000 кадров/сек
Цветовое пространство : YUV
Субдискретизация насыщенности : 4:2:0
Битовая глубина : 8 бит
Тип развёртки : Прогрессивная
Метод сжатия : С потерями
Бит/(Пиксели*Кадры) : 0.229
Размер потока : 1,32 Гбайт (89%)
Библиотека кодирования : XviD 1.2.1 (UTC 2008-12-04)
Аудио
Идентификатор : 1
Формат : AC-3
Формат/Информация : Audio Coding 3
Расширение режима : CM (complete main)
Параметр Endianness формата : Big
Идентификатор кодека : 2000
Продолжительность : 1 ч. 57 м.
Вид битрейта : Постоянный
Битрейт : 192 Кбит/сек
Каналы : 2 канала
Расположение каналов : Front: L R
Частота : 48,0 КГц
Битовая глубина : 16 бит
Метод сжатия : С потерями
Размер потока : 161 Мбайт (11%)
Выравнивание : Разделение по промежуткам
Продолжительность промежутка : 40 мс. (1,00 видеокадр)
Время предзагрузки промежутка : 500 мс

Скриншоты


Альтернативный хост





Показать сообщения:    

Текущее время: 06-Дек 22:56

Часовой пояс: UTC + 3


Вы не можете начинать темы
Вы не можете отвечать на сообщения
Вы не можете редактировать свои сообщения
Вы не можете удалять свои сообщения
Вы не можете голосовать в опросах
Вы не можете прикреплять файлы к сообщениям
Вы не можете скачивать файлы