Ференц Легар / Ferenc Lehar - Весёлая вдова / Die lustige Witwe (Сусанна Цирюк) [2006 г., оперетта, WEB-DLRip] Иркутский областной музыкальный театр имени Н. М. Загурского


 

[Цитировать]

Весёлая вдова (2 действия) Театр: Иркутский областной музыкальный театр имени Н. М. Загурского.
Год выпуска: 2006.
Жанр: оперетта.
Продолжительность: 00:41:22 + 01:20:56.
Режиссер: Сусанна Цирюк.
Действующие лица и исполнители:
Ганна Главари - Любовь Полякова,
Граф Данило - Александр Айдаров,
Валентина - Светлана Лунюшкина,
Россильон - заслуженный артист России Виктор Лесовой,
Барон Зетта - заслуженный артист России Николай Мальцев,
Негош - Максим Вехов,
Сен-Бриош - Игорь Ладейщиков,
Каскада - Игорь Переверзев,
Кромон - Владимир Антипов,
Богданович - заслуженный артист России Владимир Попов,
Ольга - Александра Гаращук,
Сильвиана - Евгения Калашникова,
Милица - Ирина Мякишева,
Мадам Берта - заслуженная артистка России Елена Бондаренко.
Спектакль вела: Лариса Маркова.
О спектакле:
Судьба «Весёлой вдовы» весьма необычна. Её автор – венский композитор Франц Легар – был скрипачом и дирижёром оркестров Будапешта и Вены. Будучи вторым дирижёром знаменитого «Театра ан дер Вин», Легар представил директору театра, искушённому знатоку и тонкому ценителю оперетты В. Карчагу своё новое произведение – оперетту «Весёлая вдова». Карчаг решительно не принял сочинение Легара и был убеждён, что спектакль обречён на провал. Репетиции «Весёлой вдовы» шли по ночам, а декорации и костюмы были заимствованы из других оперетт.
Перед самой премьерой директор предложил Легару отказаться от неё, получив вознаграждение, «лишь бы не позорить театр». Отчаявшийся композитор готов был ответить согласием, но исполнители главных ролей уговорили его не сдаваться и сыграть хотя бы один спектакль.
Уже первый акт «Весёлой вдовы» произвёл фурор. Аплодисментам не был конца. После второго акта возникла овация, неслыханная даже в «Театре ан дер Вин»…
За свою творческую жизнь композитор написал свыше 30 оперетт, среди которых большую популярность приобрели «Граф Люксембург», «Цыганская любовь», «Фраскита» и другие.
Но «Весёлая вдова», полная яркой и выразительной музыки, пронизанная атмосферой обаятельного легкомыслия Монмартра, по праву считается одной из лучших оперетт не только в творчестве Ф. Легара, но и во всей истории жанра.

Дополнительная информация:
Страна: Россия .
Композитор: Ференц Легар.
Дирижер-постановщик: Николай Сильвестров.
Художник: Татьяна Королева.
Балетмейстер: Елена Дмитриева.
Хормейстер: Ульяна Чугуева.
Художники по свету: заслуженный работник культуры России Галина Мельник, Алексей Тарасов.

Релиз
Рип sharky.

Качество видео:...WEB-DLRip
Формат:.................AVI
Видео:..704x528 (1.33:1), 25 fps, XviD build 50 ~1496 kbps avg, 0.16 bit/pixel
Аудио:..48 kHz, AC3 Dolby Digital, 2/0 (L,R) ch, ~192 kbps

Отчет Media Info

1-е действие
General
Complete name : Vesyolaya.vdova.Irkutsk.(2.dejstviya.iz.2).2006.XviD.WEB-DLRip.fenixclub\Vesyolaya.vdova.Irkutsk.(1-e.dejstvie.iz.2).2006.XviD.WEB-DLRip.fenixclub.avi
Формат : AVI
Формат/Информация : Audio Video Interleave
Размер файла : 503 Мбайт
Продолжительность : 41 м.
Общий поток : 1698 Кбит/сек
Программа кодирования : VirtualDubMod 1.5.10.3 | www.virtualdub-fr.org || (build 2550/release)
Библиотека кодирования : VirtualDubMod build 2550/release
Видео
Идентификатор : 0
Формат : MPEG-4 Visual
Профиль формата : Advanced Simple@L5
Параметр BVOP формата : 2
Параметр QPel формата : Нет
Параметр GMC формата : Без точки перехода
Параметр матрицы формата : Default (H.263)
Режим смешивания : Сжатый битовый поток
Идентификатор кодека : XVID
Идентификатор кодека/Подсказка : XviD
Продолжительность : 41 м.
Битрейт : 1497 Кбит/сек
Ширина : 704 пикселя
Высота : 528 пикселей
Соотношение сторон : 4:3
Частота кадров : 25,000 кадров/сек
Цветовое пространство : YUV
Субдискретизация насыщенности : 4:2:0
Битовая глубина : 8 бит
Тип развёртки : Прогрессивная
Метод сжатия : С потерями
Бит/(Пиксели*Кадры) : 0.161
Размер потока : 443 Мбайт (88%)
Библиотека кодирования : XviD 1.2.1 (UTC 2008-12-04)
Аудио
Идентификатор : 1
Формат : AC-3
Формат/Информация : Audio Coding 3
Расширение режима : CM (complete main)
Параметр Endianness формата : Big
Идентификатор кодека : 2000
Продолжительность : 41 м.
Вид битрейта : Постоянный
Битрейт : 192 Кбит/сек
Каналы : 2 канала
Расположение каналов : Front: L R
Частота : 48,0 КГц
Битовая глубина : 16 бит
Метод сжатия : С потерями
Размер потока : 56,8 Мбайт (11%)
Выравнивание : Разделение по промежуткам
Продолжительность промежутка : 40 мс. (1,00 видеокадр)
Время предзагрузки промежутка : 500 мс.
2-е действие
General
Complete name : Vesyolaya.vdova.Irkutsk.(2.dejstviya.iz.2).2006.XviD.WEB-DLRip.fenixclub\Vesyolaya.vdova.Irkutsk.(2-e.dejstvie.iz.2).2006.XviD.WEB-DLRip.fenixclub.avi
Формат : AVI
Формат/Информация : Audio Video Interleave
Размер файла : 983 Мбайт
Продолжительность : 1 ч. 20 м.
Общий поток : 1698 Кбит/сек
Программа кодирования : VirtualDubMod 1.5.10.3 | www.virtualdub-fr.org || (build 2550/release)
Библиотека кодирования : VirtualDubMod build 2550/release
Видео
Идентификатор : 0
Формат : MPEG-4 Visual
Профиль формата : Advanced Simple@L5
Параметр BVOP формата : 2
Параметр QPel формата : Нет
Параметр GMC формата : Без точки перехода
Параметр матрицы формата : Default (H.263)
Режим смешивания : Сжатый битовый поток
Идентификатор кодека : XVID
Идентификатор кодека/Подсказка : XviD
Продолжительность : 1 ч. 20 м.
Битрейт : 1497 Кбит/сек
Ширина : 704 пикселя
Высота : 528 пикселей
Соотношение сторон : 4:3
Частота кадров : 25,000 кадров/сек
Цветовое пространство : YUV
Субдискретизация насыщенности : 4:2:0
Битовая глубина : 8 бит
Тип развёртки : Прогрессивная
Метод сжатия : С потерями
Бит/(Пиксели*Кадры) : 0.161
Размер потока : 866 Мбайт (88%)
Библиотека кодирования : XviD 1.2.1 (UTC 2008-12-04)
Аудио
Идентификатор : 1
Формат : AC-3
Формат/Информация : Audio Coding 3
Расширение режима : CM (complete main)
Параметр Endianness формата : Big
Идентификатор кодека : 2000
Продолжительность : 1 ч. 20 м.
Вид битрейта : Постоянный
Битрейт : 192 Кбит/сек
Каналы : 2 канала
Расположение каналов : Front: L R
Частота : 48,0 КГц
Битовая глубина : 16 бит
Метод сжатия : С потерями
Размер потока : 111 Мбайт (11%)
Выравнивание : Разделение по промежуткам
Продолжительность промежутка : 40 мс. (1,00 видеокадр)
Время предзагрузки промежутка : 500 мс.

Скриншоты


Альтернативный хост





Показать сообщения:    

Текущее время: 09-Дек 03:00

Часовой пояс: UTC + 3


Вы не можете начинать темы
Вы не можете отвечать на сообщения
Вы не можете редактировать свои сообщения
Вы не можете удалять свои сообщения
Вы не можете голосовать в опросах
Вы не можете прикреплять файлы к сообщениям
Вы не можете скачивать файлы