Ференц Легар / Ferenc Lehar - Граф Люксембург / Der Graf von Luxemburg (Сусанна Цирюк) [2012 г., Беларусь, оперетта, WEB-DLRip] Белорусский государственный академический музыкальный театр


 

[Цитировать]

Граф Люксембург (2 действия) Театр: Белорусский государственный академический музыкальный театр.
Год выпуска: 2012.
Жанр: оперетта.
Продолжительность: 00:43:24 + 01:08:52.
Режиссер: Сусанна Цирюк.
Действующие лица и исполнители:
Рене, граф фон Люксембург - дипломант международного конкурса Сергей Сутько,
Анжель Дидье - лауреат международного конкурса Наталья Дементьева,
Арман Бриссар - Сергей Спруть,
Жюльетта - лауреат международного конкурса Леся Лют,
Князь Базинелли - лауреат международных конкурсов Андрей Морозов,
Баронесса Клементина Кокози - Виктория Жбанкова-Стриганкова,
Менчи - Денис Мальцевич,
Павельди - лауреат международного конкурса Денис Немцов,
Пелегрин, нотариус - Дмитрий Матиевский,
Куртизанка - Александра Красноглазова,
Участники карнавального шествия, туристы — артисты хора,
Маски, "оркестрик", статуи, бандиты, куртизанки — артисты балета.
О спектакле:
В карнавальную ночь возможно все! В атмосфере всеобщего веселья и упоения праздником сбываются даже невероятные мечты и воплощаются в жизнь самые безумные идеи!..
Мог ли обедневший граф Рене Люксембург предположить, что коммерческая сделка с престарелым князем Базинелли принесет ему не только богатство, но любовь? Условия этой сделки (надо сказать, довольно сомнительной) заключались в следующем. Рене, обнищавшему аристократу, было предложено вступить в фиктивный брак за деньги и передать новоиспеченной супруге графский титул. Затем Люксембург был обязан быстро развестись с прекрасной незнакомкой, внешность и имя которой держали от него в секрете.
Фестиваль "Наталия Гайда приглашает..."

Дополнительная информация:
Страна: Беларусь .
Композитор: Ференц Легар.
Авторская версия либретто: Сусанна Цирюк.
Стихи Галина Шергова.
Дирижер-постановщик: Олег Лесун.
Дирижер: Марина Третьякова.
Сценография: Любовь Сидельникова.
Художник по костюмам: Татьяна Королева (Россия).
Художник по свету: Алексей Тарасов (Россия).
Балетмейстер-постановщик: Александра Тихомирова (Россия).
Хормейстер-постановщик: Светлана Петрова.
Премьера спектакля состоялась 25 марта 2012 года.

О спектакле.
Релиз
Рип sharky.

Качество видео:...WEB-DLRip
Формат:.................AVI
Видео:..704x400 (1.76:1), 25 fps, XviD build 50 ~1647 kbps avg, 0.23 bit/pixel
Аудио:..48 kHz, AC3 Dolby Digital, 2/0 (L,R) ch, ~192 kbps

Отчет Media Info

1-е действие
General
Complete name : Graf.Lyuksemburg.Belarus'.(2.dejstviya.iz.2).2012.XviD.WEB-DLRip\Graf.Lyuksemburg.Belarus'. (1-e.dejstvie.iz.2).2012.XviD.WEB-DLRip.avi
Формат : AVI
Формат/Информация : Audio Video Interleave
Размер файла : 574 Мбайт
Продолжительность : 43 м.
Общий поток : 1850 Кбит/сек
Программа кодирования : VirtualDubMod 1.5.10.3 | www.virtualdub-fr.org || (build 2550/release)
Библиотека кодирования : VirtualDubMod build 2550/release
Видео
Идентификатор : 0
Формат : MPEG-4 Visual
Профиль формата : Advanced Simple@L5
Параметр BVOP формата : 2
Параметр QPel формата : Нет
Параметр GMC формата : Без точки перехода
Параметр матрицы формата : Default (H.263)
Режим смешивания : Сжатый битовый поток
Идентификатор кодека : XVID
Идентификатор кодека/Подсказка : XviD
Продолжительность : 43 м.
Битрейт : 1648 Кбит/сек
Ширина : 704 пикселя
Высота : 400 пикселей
Соотношение сторон : 16:9
Частота кадров : 25,000 кадров/сек
Цветовое пространство : YUV
Субдискретизация насыщенности : 4:2:0
Битовая глубина : 8 бит
Тип развёртки : Прогрессивная
Метод сжатия : С потерями
Бит/(Пиксели*Кадры) : 0.234
Размер потока : 512 Мбайт (89%)
Библиотека кодирования : XviD 1.2.1 (UTC 2008-12-04)
Аудио
Идентификатор : 1
Формат : AC-3
Формат/Информация : Audio Coding 3
Расширение режима : CM (complete main)
Параметр Endianness формата : Big
Идентификатор кодека : 2000
Продолжительность : 43 м.
Вид битрейта : Постоянный
Битрейт : 192 Кбит/сек
Каналы : 2 канала
Расположение каналов : Front: L R
Частота : 48,0 КГц
Битовая глубина : 16 бит
Метод сжатия : С потерями
Размер потока : 59,6 Мбайт (10%)
Выравнивание : Разделение по промежуткам
Продолжительность промежутка : 40 мс. (1,00 видеокадр)
Время предзагрузки промежутка : 500 мс.
2-е действие
General
Complete name : Graf.Lyuksemburg.Belarus'.(2.dejstviya.iz.2).2012.XviD.WEB-DLRip\Graf.Lyuksemburg.Belarus'.(2-e.dejstvie.iz.2).2012.XviD.WEB-DLRip.avi
Формат : AVI
Формат/Информация : Audio Video Interleave
Размер файла : 911 Мбайт
Продолжительность : 1 ч. 8 м.
Общий поток : 1849 Кбит/сек
Программа кодирования : VirtualDubMod 1.5.10.3 | www.virtualdub-fr.org || (build 2550/release)
Библиотека кодирования : VirtualDubMod build 2550/release
Видео
Идентификатор : 0
Формат : MPEG-4 Visual
Профиль формата : Advanced Simple@L5
Параметр BVOP формата : 2
Параметр QPel формата : Нет
Параметр GMC формата : Без точки перехода
Параметр матрицы формата : Default (H.263)
Режим смешивания : Сжатый битовый поток
Идентификатор кодека : XVID
Идентификатор кодека/Подсказка : XviD
Продолжительность : 1 ч. 8 м.
Битрейт : 1648 Кбит/сек
Ширина : 704 пикселя
Высота : 400 пикселей
Соотношение сторон : 16:9
Частота кадров : 25,000 кадров/сек
Цветовое пространство : YUV
Субдискретизация насыщенности : 4:2:0
Битовая глубина : 8 бит
Тип развёртки : Прогрессивная
Метод сжатия : С потерями
Бит/(Пиксели*Кадры) : 0.234
Размер потока : 812 Мбайт (89%)
Библиотека кодирования : XviD 1.2.1 (UTC 2008-12-04)
Аудио
Идентификатор : 1
Формат : AC-3
Формат/Информация : Audio Coding 3
Расширение режима : CM (complete main)
Параметр Endianness формата : Big
Идентификатор кодека : 2000
Продолжительность : 1 ч. 8 м.
Вид битрейта : Постоянный
Битрейт : 192 Кбит/сек
Каналы : 2 канала
Расположение каналов : Front: L R
Частота : 48,0 КГц
Битовая глубина : 16 бит
Метод сжатия : С потерями
Размер потока : 94,6 Мбайт (10%)
Выравнивание : Разделение по промежуткам
Продолжительность промежутка : 40 мс. (1,00 видеокадр)
Время предзагрузки промежутка : 500 мс.

Скриншоты


Альтернативный хост





Показать сообщения:    

Текущее время: 08-Дек 12:55

Часовой пояс: UTC + 3


Вы не можете начинать темы
Вы не можете отвечать на сообщения
Вы не можете редактировать свои сообщения
Вы не можете удалять свои сообщения
Вы не можете голосовать в опросах
Вы не можете прикреплять файлы к сообщениям
Вы не можете скачивать файлы