Имре Кальман / Imre Kalman - Grafin Mariza / Марица (Сергей Сметанин) [2012 г., оперетта, WEB-DLRip] Чувашский государственный театр оперы и балета


 

[Цитировать]

Марица Театр: Чувашский государственный театр оперы и балета.
Год выпуска: 2012.
Жанр: оперетта.
Продолжительность: 01:56:13.
Режиссер: Сергей Сметанин.
Действующие лица и исполнители:
Графиня Марица - заслуженная артистка Чувашии Людмила Яковлева,
Граф Тассило - заслуженный артист Чувашии Сергей Алексеев,
Графиня Лиза - лауреат театральной премии Чувашии Татьяна Тойбахина,
Барон Зупан - Василий Николаев,
Михай - Алексей Степанов,
Цецилия - лауреат театральной премии Чувашии Татьяна Русановская,
Барон Мориц - заслуженный артист Чувашии Михаил Мокшанов,
Куделько - заслуженный артист Чувашии Александр Чернышов,
Цыганка - Надежда Степанова.
О спектакле:
Театр впервые обращается к постановке этой оперетты. Петербургский режиссер Сергей Сметанин, специально приглашенный для работы над этим спектаклем, известен как постановщик именно музыкального театра.
В основе его концепции лежит идея праздника, танцевальности и веселья. Герои так называемого «легкого» жанра борются за свою любовь по-настоящему, их чувства - это не «оперетточные страсти», это живые и проникновенные эмоциональные откровения. Для современного театра оперетта не является простым жанром, так как либретто, насыщенное юмором столетней давности, неизбежно устаревает. Тем сложней задача режиссера, который осмеливается реанимировать эти шутки, сделать их актуальными и забавными для сегодняшнего интерактивного зрителя. Театр надеется, что спектакль «Марица» обязательно найдет своих благодарных поклонников.

Дополнительная информация:
Страна: Россия .
Композитор: Имре Кальман.
Либретто М. Лендьелфи по мотивам Ю. Браммера, А. Грюнвальда и Ж. Харшаньи в свободном изложении Юрия Димитрина.
Стихи Юрия Димитрина, Л. Захарова и Евгения Геркена.
Художник-постановщик: Валентин Федоров.
Художник по костюмам: Галия Юсупова.
Балетмейстер: Галина Никифорова.
Хормейстеры: Анатолий Фишер, Любовь Казанцева.
Дирижер: Дмитрий Банаев.
Премьера спектакля состоялась 5 октября 2000 года.

О спектакле.
Релиз
Рип sharky.

Качество видео:...WEB-DLRip
Формат:.................AVI
Видео:..704x400 (1.76:1), 25 fps, XviD build 50 ~1585 kbps avg, 0.23 bit/pixel
Аудио:..48 kHz, AC3 Dolby Digital, 2/0 (L,R) ch, ~192 kbps

Отчет Media Info

General
Complete name : Marica.Chuvashiya.2012.XviD.WEB-DLRip.fenixclub.avi
Формат : AVI
Формат/Информация : Audio Video Interleave
Размер файла : 1,45 Гбайт
Продолжительность : 1 ч. 56 м.
Общий поток : 1788 Кбит/сек
Программа кодирования : VirtualDubMod 1.5.10.3 | www.virtualdub-fr.org || (build 2550/release)
Библиотека кодирования : VirtualDubMod build 2550/release
Видео
Идентификатор : 0
Формат : MPEG-4 Visual
Профиль формата : Advanced Simple@L5
Параметр BVOP формата : 2
Параметр QPel формата : Нет
Параметр GMC формата : Без точки перехода
Параметр матрицы формата : Default (H.263)
Режим смешивания : Сжатый битовый поток
Идентификатор кодека : XVID
Идентификатор кодека/Подсказка : XviD
Продолжительность : 1 ч. 56 м.
Битрейт : 1586 Кбит/сек
Ширина : 704 пикселя
Высота : 400 пикселей
Соотношение сторон : 16:9
Частота кадров : 25,000 кадров/сек
Цветовое пространство : YUV
Субдискретизация насыщенности : 4:2:0
Битовая глубина : 8 бит
Тип развёртки : Прогрессивная
Метод сжатия : С потерями
Бит/(Пиксели*Кадры) : 0.225
Размер потока : 1,29 Гбайт (89%)
Библиотека кодирования : XviD 1.2.1 (UTC 2008-12-04)
Аудио
Идентификатор : 1
Формат : AC-3
Формат/Информация : Audio Coding 3
Расширение режима : CM (complete main)
Параметр Endianness формата : Big
Идентификатор кодека : 2000
Продолжительность : 1 ч. 56 м.
Вид битрейта : Постоянный
Битрейт : 192 Кбит/сек
Каналы : 2 канала
Расположение каналов : Front: L R
Частота : 48,0 КГц
Битовая глубина : 16 бит
Метод сжатия : С потерями
Размер потока : 160 Мбайт (11%)
Выравнивание : Разделение по промежуткам
Продолжительность промежутка : 40 мс. (1,00 видеокадр)
Время предзагрузки промежутка : 500 мс.

Скриншоты


Альтернативный хост





Показать сообщения:    

Текущее время: 04-Дек 09:09

Часовой пояс: UTC + 3


Вы не можете начинать темы
Вы не можете отвечать на сообщения
Вы не можете редактировать свои сообщения
Вы не можете удалять свои сообщения
Вы не можете голосовать в опросах
Вы не можете прикреплять файлы к сообщениям
Вы не можете скачивать файлы