Винченцо Беллини - Пуритане (Мария Агреста) / Vincenzo Bellini - I Puritani (Maria Agresta) дир. Микеле Мариотти / cond. Michele Mariotti (Laurent Pelly) [2013, Opera, HDTVRip-AVC][Русские субтитры + Eng. Sub\'s]


 

[Цитировать]

-Парижская Опера представляет
Мария АГРЕСТА • Maria AGRESTA
в опере
ВИНЧЕНЦО Сальваторе Кармело Франческо БЕЛЛИНИ
3 ноября 1801 — 23 сентября 1835
»«П У Р И Т А Н Е»«
Либретто Карла Пеполи,
по мотивам романа Вальтера Скотта «Пуритане»
-- Год записи: 2013
•••
Лейбл: FRA CINEMA aves
Страна: France
Жанр: Opera
Продолжительность: 163 min.
•••
Язык: Итальянский
Субтитры: РУССКИЕ, English
в составе контейнера
Качество видео: HDTVRip 720p
Исходник: HDTVRip 1080i [Thanks to Mauricelugher!]
Формат/Контейнер: MKV
Видео кодек: H.264
Аудио кодек: AC3
Видео поток: 1280x720, 2000 kbps, 25,000 fps.
Аудио поток: Итальянский, 384 kbps, 48,0 KHz, 6 ch оригинальный
•••
Дирижёр: МИКЕЛЕ МАРИОТТИ
Michele Mariotti
Постановка и костюмы: ЛОРАН ПЕЛЛИ
Laurent Pelly
Декоратор: ШАНТАЛЬ ТОМА
Chantal Thomas
Световое оформление: ЖОЭЛЬ АДАМ
Joel Adam
-

Действующие лица и исполнители

•••
Англия, XVII век...
Лорд УОЛТОН, предводитель пуритан - ВОЙТЕК СМИЛЕК
Lord Gualtiero Valton - Wojtek Smilek
Сэр ДЖОРДЖ УОЛТОН, его брат - МИШЕЛЬ ПЕРТУЗИ
Sir Giorgio - Michele Pertusi
ЭЛЬВИРА, дочь лорда УОЛТОНА- МАРИЯ АГРЕСТА
Elvira - Maria Agresta
Сэр РИЧАРД ФОРТ, пуританин - МАРИУШ КВЕЧЕНЬ
Sir Riccardo Forth - Mariusz Kwiecien
ГЭНРИЕТТА, королева, вдова Карла I - АНДРЕЯ СОАРЕ
Enrichetta di Francia - Andreea Soare
Лорд АРТУР ТАЛЬБОТ, роялист - ДМИТРИЙ КОРЧАК
Arturo Talbot - Dmitry Korchak
Сэр БРУНО РОБЕРТСОН, пуританин - ЛУКА ЛОМБАРДО
Sir Bruno Robertson - Luca Lombardo
•••
ХОР и ОРКЕСТР ПАРИЖСКОЙ ОПЕРЫ
Paris Opera Orchestra and Chorus
Хормейстер: ПАТРИК МАРИ ОБЕР
Patrick Marie Aubert

Скриншоты


MediaInfoPart1


-

x264 2nd pass log

avs [info]: 1280x720p 1:1 @ 25/1 fps (cfr)
x264 [info]: using SAR=1/1
x264 [info]: using cpu capabilities: MMX2 SSE2Fast SSEMisalign LZCNT
x264 [info]: profile High, level 3.1
x264 [info]: frame I:629 Avg QP:18.00 size: 87971
x264 [info]: frame P:49928 Avg QP:20.22 size: 17246
x264 [info]: frame B:67823 Avg QP:22.39 size: 3946
x264 [info]: consecutive B-frames: 10.6% 35.3% 10.7% 43.3%
x264 [info]: mb I I16..4: 10.1% 60.1% 29.8%
x264 [info]: mb P I16..4: 2.0% 3.8% 0.5% P16..4: 42.8% 15.3% 11.8% 0.0% 0.0% skip:23.7%
x264 [info]: mb B I16..4: 0.2% 0.2% 0.0% B16..8: 36.3% 2.9% 0.5% direct: 1.5% skip:58.4% L0:40.0% L1:54.5% BI: 5.5%
x264 [info]: 8x8 transform intra:59.4% inter:79.2%
x264 [info]: coded y,uvDC,uvAC intra: 41.6% 56.4% 23.7% inter: 15.3% 22.4% 2.0%
x264 [info]: i16 v,h,dc,p: 52% 19% 16% 12%
x264 [info]: i8 v,h,dc,ddl,ddr,vr,hd,vl,hu: 17% 10% 48% 3% 5% 5% 4% 4% 3%
x264 [info]: i4 v,h,dc,ddl,ddr,vr,hd,vl,hu: 38% 18% 13% 4% 6% 7% 5% 5% 4%
x264 [info]: i8c dc,h,v,p: 57% 17% 23% 3%
x264 [info]: Weighted P-Frames: Y:1.0% UV:0.2%
x264 [info]: ref P L0: 58.4% 9.6% 21.1% 10.7% 0.1%
x264 [info]: ref B L0: 78.2% 18.8% 3.0%
x264 [info]: ref B L1: 93.9% 6.1%
x264 [info]: kb/s:2000.42
encoded 118380 frames, 17.84 fps, 2000.42 kb/s
Final statistics
Video Bitrate Desired: 2000 kbit/s
Video Bitrate Obtained (approximate): 2001 kbit/s
-Общее
Уникальный идентификатор : 171101889805541162155263671965747484771 (0x80B9067AD5182E0696DC050BBF679863)
Полное имя : D:\Temp Ru.Tracker\I Puritani (Maria Agresta) Bastille (2013)\I Puritani (Maria Agresta) Part1.mkv
Формат : Matroska
Версия формата : Version 2
Размер файла : 1,24 Гбайт
Продолжительность : 1 ч. 14 м.
Общий поток : 2380 Кбит/сек
Дата кодирования : UTC 2013-12-23 14:49:55
Программа кодирования : mkvmerge v4.9.1 ('Ich will') сборка от Jul 11 2011 23:53:15
Библиотека кодирования : libebml v1.2.1 + libmatroska v1.1.1
Видео
Идентификатор : 1
Формат : AVC
Формат/Информация : Advanced Video Codec
Профиль формата : High@L3.1
Параметр CABAC формата : Да
Параметр ReFrames формата : 4 кадра
Режим смешивания : Header stripping
Идентификатор кодека : V_MPEG4/ISO/AVC
Продолжительность : 1 ч. 14 м.
Битрейт : 1949 Кбит/сек
Ширина : 1280 пикселей
Высота : 720 пикселей
Соотношение сторон : 16:9
Частота кадров : 25,000 кадров/сек
Цветовое пространство : YUV
Субдискретизация насыщенности : 4:2:0
Битовая глубина : 8 бит
Тип развёртки : Прогрессивная
Бит/(Пиксели*Кадры) : 0.085
Размер потока : 1,02 Гбайт (82%)
Язык : English
Аудио
Идентификатор : 2
Формат : AC-3
Формат/Информация : Audio Coding 3
Расширение режима : CM (complete main)
Режим смешивания : Header stripping
Идентификатор кодека : A_AC3
Продолжительность : 1 ч. 14 м.
Вид битрейта : Постоянный
Битрейт : 384 Кбит/сек
Каналы : 6 каналов
Расположение каналов : Front: L C R, Side: L R, LFE
Частота : 48,0 КГц
Битовая глубина : 16 бит
Метод сжатия : С потерями
Задержка видео : 24 мс.
Размер потока : 205 Мбайт (16%)
Текст #1
Идентификатор : 3
Формат : UTF-8
Идентификатор кодека : S_TEXT/UTF8
Идентификатор кодека/Информация : UTF-8 Plain Text
Язык : Russian
Текст #2
Идентификатор : 4
Формат : UTF-8
Идентификатор кодека : S_TEXT/UTF8
Идентификатор кодека/Информация : UTF-8 Plain Text
Язык : English

Part2


-

x264 2nd pass log

avs [info]: 1280x720p 1:1 @ 25/1 fps (cfr)
x264 [info]: using SAR=1/1
x264 [info]: using cpu capabilities: MMX2 SSE2Fast SSEMisalign LZCNT
x264 [info]: profile High, level 3.1
x264 [info]: frame I:823 Avg QP:17.24 size: 73750
x264 [info]: frame P:83742 Avg QP:19.25 size: 14071
x264 [info]: frame B:67192 Avg QP:21.32 size: 4143
x264 [info]: consecutive B-frames: 26.3% 42.1% 6.0% 25.7%
x264 [info]: mb I I16..4: 12.1% 65.5% 22.5%
x264 [info]: mb P I16..4: 2.4% 4.9% 0.3% P16..4: 43.9% 12.6% 10.8% 0.0% 0.0% skip:25.1%
x264 [info]: mb B I16..4: 0.2% 0.3% 0.0% B16..8: 35.4% 2.7% 0.4% direct: 1.9% skip:59.0% L0:41.6% L1:53.6% BI: 4.8%
x264 [info]: 8x8 transform intra:63.9% inter:83.1%
x264 [info]: coded y,uvDC,uvAC intra: 37.1% 54.7% 19.3% inter: 16.9% 25.9% 1.9%
x264 [info]: i16 v,h,dc,p: 44% 19% 19% 17%
x264 [info]: i8 v,h,dc,ddl,ddr,vr,hd,vl,hu: 14% 9% 55% 3% 4% 4% 4% 3% 3%
x264 [info]: i4 v,h,dc,ddl,ddr,vr,hd,vl,hu: 32% 17% 18% 4% 7% 7% 5% 5% 4%
x264 [info]: i8c dc,h,v,p: 60% 18% 19% 3%
x264 [info]: Weighted P-Frames: Y:0.6% UV:0.3%
x264 [info]: ref P L0: 55.4% 7.0% 23.7% 13.8% 0.1%
x264 [info]: ref B L0: 73.3% 24.0% 2.6%
x264 [info]: ref B L1: 95.2% 4.8%
x264 [info]: kb/s:1999.75
encoded 151757 frames, 17.59 fps, 1999.75 kb/s
Final statistics
Video Bitrate Desired: 2000 kbit/s
-Общее
Уникальный идентификатор : 200482900991941951613821678754346462720 (0x96D39A2C201A8B0E982F00D2FC226E00)
Полное имя : D:\Temp Ru.Tracker\I Puritani (Maria Agresta) Bastille (2013)\I Puritani (Maria Agresta) Part2.mkv
Формат : Matroska
Версия формата : Version 2
Размер файла : 1,51 Гбайт
Продолжительность : 1 ч. 29 м.
Общий поток : 2434 Кбит/сек
Дата кодирования : UTC 2013-12-27 13:46:48
Программа кодирования : mkvmerge v4.9.1 ('Ich will') сборка от Jul 11 2011 23:53:15
Библиотека кодирования : libebml v1.2.1 + libmatroska v1.1.1
Видео
Идентификатор : 1
Формат : AVC
Формат/Информация : Advanced Video Codec
Профиль формата : High@L3.1
Параметр CABAC формата : Да
Параметр ReFrames формата : 4 кадра
Режим смешивания : Header stripping
Идентификатор кодека : V_MPEG4/ISO/AVC
Продолжительность : 1 ч. 29 м.
Битрейт : 2001 Кбит/сек
Ширина : 1280 пикселей
Высота : 720 пикселей
Соотношение сторон : 16:9
Частота кадров : 25,000 кадров/сек
Цветовое пространство : YUV
Субдискретизация насыщенности : 4:2:0
Битовая глубина : 8 бит
Тип развёртки : Прогрессивная
Бит/(Пиксели*Кадры) : 0.087
Размер потока : 1,24 Гбайт (82%)
Язык : English
Аудио
Идентификатор : 2
Формат : AC-3
Формат/Информация : Audio Coding 3
Расширение режима : CM (complete main)
Режим смешивания : Header stripping
Идентификатор кодека : A_AC3
Продолжительность : 1 ч. 29 м.
Вид битрейта : Постоянный
Битрейт : 384 Кбит/сек
Каналы : 6 каналов
Расположение каналов : Front: L C R, Side: L R, LFE
Частота : 48,0 КГц
Битовая глубина : 16 бит
Метод сжатия : С потерями
Задержка видео : 16 мс.
Размер потока : 245 Мбайт (16%)
Текст #1
Идентификатор : 3
Формат : UTF-8
Идентификатор кодека : S_TEXT/UTF8
Идентификатор кодека/Информация : UTF-8 Plain Text
Язык : Russian
Текст #2
Идентификатор : 4
Формат : UTF-8
Идентификатор кодека : S_TEXT/UTF8
Идентификатор кодека/Информация : UTF-8 Plain Text
Язык : English
Всех любителей оперы
с наступающим Новым Годом!




Показать сообщения:    

Текущее время: 07-Дек 11:39

Часовой пояс: UTC + 3


Вы не можете начинать темы
Вы не можете отвечать на сообщения
Вы не можете редактировать свои сообщения
Вы не можете удалять свои сообщения
Вы не можете голосовать в опросах
Вы не можете прикреплять файлы к сообщениям
Вы не можете скачивать файлы