Verdi - Falstaff / Верди - Фальстаф (James Levine, Ambrogio Maestri, Keith Jameson, Christian Van Horn, Jennifer Johnson, Angela Meade, Stephanie Blythe, Lisette Oropesa) [2013, opera, HDTVRip]


 

[Цитировать]

Verdi - Falstaff / Верди - Фальстаф
Год выпуска: 2013
Жанр: opera
Продолжительность: 02:23:33
Язык: итальянский
Субтитры: английские вшитые, русские доступны тут
Режиссер: Robert Carsen
Дирижер: James Levine
Исполнители:
Sir John Falstaff - Ambrogio Maestri
Bardolfo - Keith Jameson
Pistola - Christian Van Horn
Meg Page - Jennifer Johnson
Alice Ford - Angela Meade
Mistress Quickly - Stephanie Blythe
Nannetta - Lisette Oropesa
Fenton - Paolo Fanale
Ford - Franco Vassallo
Set Designer - Paul Steinberg
Costume Designer - Brigitte Reiffenstuel
Lighting Designers - Robert Carsen, Peter Van Praet
Спасибо Akacha и Mauricelugher !
Внимание, торрент перезалит. Исправлена рассинхронизация звука в конце третьего акта.
Качество видео: HDTVRip
Формат/Контейнер: MKV
Видео кодек: H.264
Аудио кодек: AC3
Видео поток: 960x536 25fps 1 697 Kbps
Аудио поток: AC3 48000Hz 6ch 448 Kbps

MI

Format : Matroska
Format version : Version 2
File size : 476 MiB
Duration : 30mn 25s
Overall bit rate : 2 188 Kbps
Encoded date : UTC 2013-12-16 08:29:31
Writing application : mkvmerge v5.8.0 ('No Sleep / Pillow') built on Sep 2 2012 15:37:04
Writing library : libebml v1.2.3 + libmatroska v1.3.0
Video
ID : 1
Format : AVC
Format/Info : Advanced Video Codec
Format profile : High@L4.1
Format settings, CABAC : Yes
Format settings, ReFrames : 8 frames
Codec ID : V_MPEG4/ISO/AVC
Duration : 30mn 25s
Bit rate : 1 697 Kbps
Width : 960 pixels
Height : 536 pixels
Display aspect ratio : 16:9
Frame rate mode : Constant
Frame rate : 25.000 fps
Color space : YUV
Chroma subsampling : 4:2:0
Bit depth : 8 bits
Scan type : Progressive
Bits/(Pixel*Frame) : 0.132
Stream size : 369 MiB (78%)
Writing library : x264 core 125 r2208 d9d2288
Encoding settings : cabac=1 / ref=8 / deblock=1:-1:-1 / analyse=0x3:0x133 / me=umh / subme=9 / psy=1 / psy_rd=1.00:0.10 / mixed_ref=1 / me_range=24 / chroma_me=1 / trellis=2 / 8x8dct=1 / cqm=0 / deadzone=21,11 / fast_pskip=1 / chroma_qp_offset=-3 / threads=6 / lookahead_threads=1 / sliced_threads=0 / nr=0 / decimate=1 / interlaced=0 / bluray_compat=0 / constrained_intra=0 / bframes=3 / b_pyramid=2 / b_adapt=2 / b_bias=0 / direct=1 / weightb=1 / open_gop=0 / weightp=2 / keyint=250 / keyint_min=25 / scenecut=40 / intra_refresh=0 / rc_lookahead=60 / rc=crf / mbtree=1 / crf=20.0 / qcomp=0.60 / qpmin=0 / qpmax=69 / qpstep=4 / ip_ratio=1.40 / aq=1:1.00
Default : Yes
Forced : No
Audio
ID : 2
Format : AC-3
Format/Info : Audio Coding 3
Mode extension : CM (complete main)
Format settings, Endianness : Big
Codec ID : A_AC3
Duration : 30mn 25s
Bit rate mode : Constant
Bit rate : 448 Kbps
Channel(s) : 6 channels
Channel positions : Front: L C R, Side: L R, LFE
Sampling rate : 48.0 KHz
Bit depth : 16 bits
Compression mode : Lossy
Stream size : 97.5 MiB (20%)
Default : Yes
Forced : No

Скриншоты




Показать сообщения:    

Текущее время: 02-Дек 23:06

Часовой пояс: UTC + 3


Вы не можете начинать темы
Вы не можете отвечать на сообщения
Вы не можете редактировать свои сообщения
Вы не можете удалять свои сообщения
Вы не можете голосовать в опросах
Вы не можете прикреплять файлы к сообщениям
Вы не можете скачивать файлы