П.И.Чайковский - Пиковая Дама/Tchaikovski - The Queen of Spades (Роман Тихомиров,Зураб Анджапаридзе, Тамара Милашкина, Софья Преображенская) [1960 г., opera-film, DVDRip-AVC]


 

[Цитировать]

Пиковая Дама. Фильм-опера
Год выпуска: 1960
Жанр: opera-film
Продолжительность: 1:41:09
Дирижер: Евгений Светланов
Режиссер: Роман Тихомиров
Исполнители:
Герман - Зураб Анджапаридзе
Лиза - Тамара Милашкина
Графиня - Софья Преображенская
Елецкий- Евгений Кибкало
Томский - Василий Нечипайло
Оркестр и хор Большого театра
В ролях: Олег Стриженов, Вадим Медведев, Ольга Красина, Елена Полевицкая, Валентин Кулик, Ирина Губанова
Описание: Фильм-опера на музыку Петра Ильича Чайковского из серии "Шедевры оперного искусства".
Качество видео: DVDRip-AVC
Формат/Контейнер: MKV
Видео кодек: H.264
Аудио кодек: AC3
Видео поток: 720x560 (48:35/768x560 анаморф) 25fps 1329 Kbps
Аудио поток: AC3 48000Hz stereo 192 Kbps

MI

Format : Matroska
Format version : Version 2
File size : 1.10 GiB
Duration : 1h 41mn
Overall bit rate : 1 552 Kbps
Encoded date : UTC 2013-12-25 10:07:29
Writing application : mkvmerge v5.8.0 ('No Sleep / Pillow') built on Sep 2 2012 15:37:04
Writing library : libebml v1.2.3 + libmatroska v1.3.0
Video
ID : 1
Format : AVC
Format/Info : Advanced Video Codec
Format profile : High@L4.1
Format settings, CABAC : Yes
Format settings, ReFrames : 8 frames
Codec ID : V_MPEG4/ISO/AVC
Duration : 1h 41mn
Bit rate : 1 329 Kbps
Width : 720 pixels
Height : 560 pixels
Display aspect ratio : 1.371
Frame rate mode : Constant
Frame rate : 25.000 fps
Color space : YUV
Chroma subsampling : 4:2:0
Bit depth : 8 bits
Scan type : Progressive
Bits/(Pixel*Frame) : 0.132
Stream size : 962 MiB (86%)
Default : Yes
Forced : No
Audio
ID : 2
Format : AC-3
Format/Info : Audio Coding 3
Mode extension : CM (complete main)
Format settings, Endianness : Big
Codec ID : A_AC3
Duration : 1h 41mn
Bit rate mode : Constant
Bit rate : 192 Kbps
Channel(s) : 2 channels
Channel positions : Front: L R
Sampling rate : 48.0 KHz
Bit depth : 16 bits
Compression mode : Lossy
Delay relative to video : 8ms
Stream size : 139 MiB (12%)
Default : Yes
Forced : No

Скриншоты




Показать сообщения:    

Текущее время: 03-Дек 09:49

Часовой пояс: UTC + 3


Вы не можете начинать темы
Вы не можете отвечать на сообщения
Вы не можете редактировать свои сообщения
Вы не можете удалять свои сообщения
Вы не можете голосовать в опросах
Вы не можете прикреплять файлы к сообщениям
Вы не можете скачивать файлы