Тихон Хренников - Доротея (Борис Лагода) [2005 г., комическая опера, VHSRip] Ивановский музыкальный театр


 

[Цитировать]

Доротея Театр: Ивановский музыкальный театр.
Год выпуска: 2005.
Жанр: комическая опера.
Продолжительность: 01:56:49.
Режиссер: Борис Лагода.
Действующие лица и исполнители:
Джеромо - В. Келин,
Инесса - Раушания Хажиева,
Фернандо - Ю. Левантович,
Антонио - Борис Лагода,
Леонора - Марина Щербакова,
Доротея - народная артистка России Ирина Ситнова,
Мендосо - заслуженный артист России Валерий Пименов,
Карлос, Падре Пабло - Дмитрий Бабашов,
Лопес - Д. Лапшов,
Фраскита - Лидия Грачева,
Настоятельница монастыря - Татьяна Копычева.
О спектакле:
Пьеса пьесы английского драматурга Ричарда Б. Шеридана «Дуэнья», мастерски обработанная либреттистом Яковом Халецким, легла в основу популярной комический оперы Тихона Хренникова «Доротея».
Действие комической оперы "Доротея" происходит на испанской земле, в небольшом городе Севилья. Молодые люди любят друг друга, но не могут быть вместе по одной простой причине – девушка должна выйти замуж за другого. И что бы делали наши герои, если бы не их верные слуги…Дуэнья Доротея, которая "всегда покровительствовала влюбленным" и называла себя "поклонницей нежных страстей", идет на отчаянный шаг: помогает своей воспитаннице сбежать из родительского дома, а сама благополучно выдает себя за свою сеньориту.
Путаница с местами и именами, переодевания, похищения – все это не только остается безнаказанным, но и способствует обретению счастья… трех пар! А что же дуэнья? Она тоже останется довольной, поскольку в результате удачного стечения обстоятельств окажется женой очень богатого господина…

Дополнительная информация:
Страна: Россия .
Композитор: Тихон Хренников.
Автор либретто: Яков Халецкий.
Дирижер: заслуженный артист России Аркадий Ладыженский.
Художник: Н. Миронова.
Балетмейстер: Валентина Лисовская.
Хормейстер: Е. Чибисова.

Релиз
Рип sharky.

Качество видео:...VHSRip
Формат:.................AVI
Видео:..704x528 (1.33:1), 25 fps, XviD build 50 ~1575 kbps avg, 0.17 bit/pixel
Аудио:..48 kHz, AC3 Dolby Digital, 2/0 (L,R) ch, ~192 kbps

Отчет Media Info

General
Complete name : Doroteya.2005.XviD.VHSRip.fenixclub.avi
Format : AVI
Format/Info : Audio Video Interleave
File size : 1.45 GiB
Duration : 1h 56mn
Overall bit rate : 1 777 Kbps
Writing application : VirtualDubMod 1.5.10.3 | www.virtualdub-fr.org || (build 2550/release)
Writing library : VirtualDub build 28292/release
Video
ID : 0
Format : MPEG-4 Visual
Format profile : Advanced Simple@L5
Format settings, BVOP : 2
Format settings, QPel : No
Format settings, GMC : No warppoints
Format settings, Matrix : Default (H.263)
Muxing mode : Packed bitstream
Codec ID : XVID
Codec ID/Hint : XviD
Duration : 1h 56mn
Bit rate : 1 576 Kbps
Width : 704 pixels
Height : 528 pixels
Display aspect ratio : 4:3
Frame rate : 25.000 fps
Color space : YUV
Chroma subsampling : 4:2:0
Bit depth : 8 bits
Scan type : Progressive
Compression mode : Lossy
Bits/(Pixel*Frame) : 0.170
Stream size : 1.29 GiB (89%)
Writing library : XviD 1.2.1 (UTC 2008-12-04)
Audio
ID : 1
Format : AC-3
Format/Info : Audio Coding 3
Mode extension : CM (complete main)
Format settings, Endianness : Big
Codec ID : 2000
Duration : 1h 56mn
Bit rate mode : Constant
Bit rate : 192 Kbps
Channel(s) : 2 channels
Channel positions : Front: L R
Sampling rate : 48.0 KHz
Bit depth : 16 bits
Compression mode : Lossy
Delay relative to video : 24ms
Stream size : 160 MiB (11%)
Alignment : Split accross interleaves
Interleave, duration : 40 ms (1.00 video frame)
Interleave, preload duration : 500 ms

Скриншоты


Альтернативный хост





Показать сообщения:    

Текущее время: 06-Дек 19:01

Часовой пояс: UTC + 3


Вы не можете начинать темы
Вы не можете отвечать на сообщения
Вы не можете редактировать свои сообщения
Вы не можете удалять свои сообщения
Вы не можете голосовать в опросах
Вы не можете прикреплять файлы к сообщениям
Вы не можете скачивать файлы