Жак Оффенбах / Jacques Offenbach - Парижская жизнь / La vie parisienne (реж. Александр Лебедев, Вероника Гришуленко, Яна Кованько, Дарья Фролова, Антон Лидман, Алексей Штыков) [2011 г., operette, WEB-DLRip] Новосибирский театр музыкальной комедии


 

[Цитировать]

Парижская жизнь Театр: Новосибирский театр музыкальной комедии
Год выпуска: 2011.
Жанр: operette.
Продолжительность: 02:13:07.
Режиссер: Александр Лебедев (Санкт-Петербург).
Действующие лица и исполнители:
заслуженная артистка России Вероника Гришуленко, Яна Кованько, Дарья Фролова, Антон Лидман, Алексей Штыков, Андрей Дорошенко, Сергей Кузьмин, Роман Ромашов, Дмитрий Суслов, Елизавета Дорофеева, Светлана Дубровина, Татьяна Фомичева.
В эпизодах: Артисты хора и балета.
О спектакле:
Что же скрывается за этим заманчивым названием? Для самого Оффенбаха оно значило именно то, что и породило сам жанр оперетты – особый способ существования, особый мир. Мир специфический и самодостаточный, мир бульваров и варьете, мир который неудержимо влечёт к себе иностранцев, становясь своего рода витриной столицы мира. Либретто оперетты было написано на основе реальных событий и, что немаловажно, по личному заказу Наполеона III в преддверии Всемирной выставки.
По версии постановщиков спектакля мало что изменилось с тех пор в жизни Парижа...

Дополнительная информация:
Страна: Россия .
Автор: Жак Оффенбах.
Авторы либретто: Ян Сашин, Исидор Шток.
Дирижёр-постановщик: Александр Новиков.
Художник-сценограф: Игорь Гриневич.
Художник по костюмам: Анна Сорокина.
Хореограф-постановщик: Геннадий Бахтерев.
Художник по свету: Гидал Шугаев (Санкт-Петербург).
Хормейстер-постановщик: Татьяна Горбенко.
Премьера спектакля состоялась 28 апреля 2011 года.


О спектакле.
Релиз
Рип sharky.

Качество видео:...WEB-DLRip
Формат:.................AVI
Видео:..704x400 (1.76:1), 25 fps, XviD build 50 ~1359 kbps avg, 0.19 bit/pixel
Аудио:..48 kHz, AC3 Dolby Digital, 2/0 (L,R) ch, ~192 kbps

Отчет Media Info

General
Complete name : Parizhskaya.zhizn'.2011.XviD.WEB-DLRip.fenixclub.avi
Format : AVI
Format/Info : Audio Video Interleave
File size : 1.45 GiB
Duration : 2h 13mn
Overall bit rate : 1 561 Kbps
Writing application : VirtualDubMod 1.5.10.3 | www.virtualdub-fr.org || (build 2550/release)
Writing library : VirtualDubMod build 2550/release
Video
ID : 0
Format : MPEG-4 Visual
Format profile : Advanced Simple@L5
Format settings, BVOP : 2
Format settings, QPel : No
Format settings, GMC : No warppoints
Format settings, Matrix : Default (H.263)
Muxing mode : Packed bitstream
Codec ID : XVID
Codec ID/Hint : XviD
Duration : 2h 13mn
Bit rate : 1 360 Kbps
Width : 704 pixels
Height : 400 pixels
Display aspect ratio : 16:9
Frame rate : 25.000 fps
Color space : YUV
Chroma subsampling : 4:2:0
Bit depth : 8 bits
Scan type : Progressive
Compression mode : Lossy
Bits/(Pixel*Frame) : 0.193
Stream size : 1.26 GiB (87%)
Writing library : XviD 1.2.1 (UTC 2008-12-04)
Audio
ID : 1
Format : AC-3
Format/Info : Audio Coding 3
Mode extension : CM (complete main)
Format settings, Endianness : Big
Codec ID : 2000
Duration : 2h 13mn
Bit rate mode : Constant
Bit rate : 192 Kbps
Channel(s) : 2 channels
Channel positions : Front: L R
Sampling rate : 48.0 KHz
Bit depth : 16 bits
Compression mode : Lossy
Stream size : 183 MiB (12%)
Alignment : Split accross interleaves
Interleave, duration : 40 ms (1.00 video frame)
Interleave, preload duration : 500 ms

Скриншоты


Альтернативный хост





Показать сообщения:    

Текущее время: 10-Дек 08:02

Часовой пояс: UTC + 3


Вы не можете начинать темы
Вы не можете отвечать на сообщения
Вы не можете редактировать свои сообщения
Вы не можете удалять свои сообщения
Вы не можете голосовать в опросах
Вы не можете прикреплять файлы к сообщениям
Вы не можете скачивать файлы