Франц фон Зуппе / Franz von Suppe - Die schone Galathee / Прекрасная Галатея (Борис Лагода) [2004 г., оперетта, VHSRip] Ивановский музыкальный театр


 

[Цитировать]

Прекрасная Галатея Театр: Ивановский музыкальный театр.
Год выпуска: 2004.
Жанр: оперетта.
Продолжительность: 01:02:09.
Режиссер: Борис Лагода.
Действующие лица и исполнители:
Галатея - Раушания Хажиева,
Пигмалион - А. Яковлев,
Мидас - заслуженный артист России Валерий Пименов,
Ганимед - Ю. Левантович,
Сатиры, нимфы - артисты хора и балета.
О спектакле:
«Прекрасная Галатея» – одна из ранних работ Ф. Зуппе. Этот миф о том, как ожила скульптура, созданная Пигмалионом, влюбившимся в свое произведение, послужил композитору поводом для создания одноактной комедии, в которой много лирики, веселой шутки, иронии и гротеска. Оказавшись среди людей, Галатея предстала в облике женщины очаровательной, но, к сожалению, легкомысленной и падкой на развлечения. Ей не нужна искренняя и возвышенная любовь скульптора: Галатея жаждет славы, богатства, роскоши и поклонников – достойной оправы ее красоте. В ней просыпается жажда любовных приключений, и дело кончается тем, что Пигмалион застает ее в объятиях своего ученика. И все же, здесь так много реального. Ведь во все времена женщина остается женщиной…
Дополнительная информация:
Страна: Россия .
Автор: Франц фон Зуппе.
Дирижер: М. Пикульский.
Художник: Г. Ижевская.
Балетмейстер: М. Заболошина.
Хормейстер: Е. Чибисова.
Премьера спектакля состоялась 18 декабря 2004 года.

Релиз
Рип sharky.

Качество видео:...VHSRip
Формат:.................AVI
Видео:..704x528 (1.33:1), 25 fps, XviD build 50 ~1472 kbps avg, 0.16 bit/pixel
Аудио:..48 kHz, AC3 Dolby Digital, 2/0 (L,R) ch, ~192 kbps

Отчет Media Info

General
Complete name : Prekrasnaya.Galateya.2004.XviD.VHSRip.fenixclub.avi
Format : AVI
Format/Info : Audio Video Interleave
File size : 744 MiB
Duration : 1h 2mn
Overall bit rate : 1 675 Kbps
Writing application : VirtualDubMod 1.5.10.2 (build 2542/release)
Writing library : VirtualDub-MPEG2 build 24586/release
Video
ID : 0
Format : MPEG-4 Visual
Format profile : Advanced Simple@L5
Format settings, BVOP : 2
Format settings, QPel : No
Format settings, GMC : No warppoints
Format settings, Matrix : Default (H.263)
Muxing mode : Packed bitstream
Codec ID : XVID
Codec ID/Hint : XviD
Duration : 1h 2mn
Bit rate : 1 473 Kbps
Width : 704 pixels
Height : 528 pixels
Display aspect ratio : 4:3
Frame rate : 25.000 fps
Color space : YUV
Chroma subsampling : 4:2:0
Bit depth : 8 bits
Scan type : Progressive
Compression mode : Lossy
Bits/(Pixel*Frame) : 0.158
Stream size : 655 MiB (88%)
Writing library : XviD 1.2.1 (UTC 2008-12-04)
Audio
ID : 1
Format : AC-3
Format/Info : Audio Coding 3
Mode extension : CM (complete main)
Format settings, Endianness : Big
Codec ID : 2000
Duration : 1h 2mn
Bit rate mode : Constant
Bit rate : 192 Kbps
Channel(s) : 2 channels
Channel positions : Front: L R
Sampling rate : 48.0 KHz
Bit depth : 16 bits
Compression mode : Lossy
Delay relative to video : 23ms
Stream size : 85.4 MiB (11%)
Alignment : Split accross interleaves
Interleave, duration : 40 ms (1.00 video frame)
Interleave, preload duration : 500 ms

Скриншоты


Альтернативный хост





Показать сообщения:    

Текущее время: 11-Дек 01:27

Часовой пояс: UTC + 3


Вы не можете начинать темы
Вы не можете отвечать на сообщения
Вы не можете редактировать свои сообщения
Вы не можете удалять свои сообщения
Вы не можете голосовать в опросах
Вы не можете прикреплять файлы к сообщениям
Вы не можете скачивать файлы