Гаэтано Доницетти / Gaetano Donizetti - Пиратский треугольник (Наталья Печерская) [2009 г., комическая опера, WEB-DLRip] Ивановский музыкальный театр


 

[Цитировать]

Пиратский треугольник Театр: Ивановский музыкальный театр.
Год выпуска: 2009.
Жанр: комическая опера в одном действии.
Продолжительность: 00:53:30.
Режиссер: Наталья Печерская.
Действующие лица и исполнители:
Рита - Алёна Смирнова,
Беппо - Дмитрий Сиянов,
Гаспаро - Дмитрий Соловьев.
О спектакле:
Преуспевающая хозяйка гостиницы Рита счастлива в семейной жизни. Еще бы! Своего второго мужа, тихого и покладистого Беппо, она держит под строгим контролем. Благосостоянием Рита обязана своему первому мужу – пирату Гаспару, который вскоре после свадьбы пропал в море во время шторма. Неожиданно в гостинице останавливается сам Гаспар. Он считает себя вдовцом, так как слышал о гибели Риты во время пожара. Более того, он собирается жениться на девушке из Алжира по имени Жаннет.
Сложившиеся обстоятельства никого из мужей не радуют. Кто останется со сварливой хозяйкой корчмы, должны решить карты. Победитель вернется к Рите, а проигравший получит свободу. Но не все так просто...

Дополнительная информация:
Страна: Россия .
Автор: Гаэтано Доницетти.
Дирижер: А. Ладыженский.
Художник: В. Новожилова.
Балетмейстер: М. Заболошина.

Релиз
Рип sharky.

Качество видео:...WEB-DLRip
Формат:.................AVI
Видео:..704x528 (1.33:1), 25 fps, XviD build 50 ~1740 kbps avg, 0.19 bit/pixel
Аудио:..48 kHz, AC3 Dolby Digital, 2/0 (L,R) ch, ~192 kbps

Отчет Media Info

General
Complete name : Piratskij.treugol'nik.2009.XviD.WEB-DLRip.fenixclub.avi
Format : AVI
Format/Info : Audio Video Interleave
File size : 743 MiB
Duration : 53mn 30s
Overall bit rate : 1 942 Kbps
Writing application : VirtualDubMod 1.5.10.3 | www.virtualdub-fr.org || (build 2550/release)
Writing library : VirtualDubMod build 2550/release
Video
ID : 0
Format : MPEG-4 Visual
Format profile : Advanced Simple@L5
Format settings, BVOP : 2
Format settings, QPel : No
Format settings, GMC : No warppoints
Format settings, Matrix : Default (H.263)
Muxing mode : Packed bitstream
Codec ID : XVID
Codec ID/Hint : XviD
Duration : 53mn 30s
Bit rate : 1 741 Kbps
Width : 704 pixels
Height : 528 pixels
Display aspect ratio : 4:3
Frame rate : 25.000 fps
Color space : YUV
Chroma subsampling : 4:2:0
Bit depth : 8 bits
Scan type : Progressive
Compression mode : Lossy
Bits/(Pixel*Frame) : 0.187
Stream size : 666 MiB (90%)
Writing library : XviD 1.2.1 (UTC 2008-12-04)
Audio
ID : 1
Format : AC-3
Format/Info : Audio Coding 3
Mode extension : CM (complete main)
Format settings, Endianness : Big
Codec ID : 2000
Duration : 53mn 30s
Bit rate mode : Constant
Bit rate : 192 Kbps
Channel(s) : 2 channels
Channel positions : Front: L R
Sampling rate : 48.0 KHz
Bit depth : 16 bits
Compression mode : Lossy
Stream size : 73.5 MiB (10%)
Alignment : Split accross interleaves
Interleave, duration : 40 ms (1.00 video frame)
Interleave, preload duration : 500 ms

Скриншоты


Альтернативный хост





Показать сообщения:    

Текущее время: 04-Дек 21:22

Часовой пояс: UTC + 3


Вы не можете начинать темы
Вы не можете отвечать на сообщения
Вы не можете редактировать свои сообщения
Вы не можете удалять свои сообщения
Вы не можете голосовать в опросах
Вы не можете прикреплять файлы к сообщениям
Вы не можете скачивать файлы