Робер Планкетт / Robert Planquette - Корневильские колокола / Les Cloches de Corrfeville (В. Кучин) [1996 г., оперетта, VHSRip] Ивановский музыкальный театр


 

[Цитировать]

Корневильские колокола Театр: Ивановский музыкальный театр.
Год выпуска: 1996.
Жанр: оперетта.
Продолжительность: 02:34:00.
Режиссер: В. Кучин.
Действующие лица и исполнители:
Маркиз де Корневиль - В. Кочержинский,
Серполетта - Т. Драчук,
Гренише - А. Серков,
Жермен - М. Щербакова,
Старшина - В. Келин,
Гаспар - В. Каннабих,
И. Ситнова, Т. Иванова, Н. Шмелева, Л. Грачева, С. Сорока.
О спектакле:
Мрачно возвышается на горе Корневильский замок. Давно покинули его владельцы. Правда, по ночам в замке загораются таинственные огни, местные жители уверены, что там живут привидения. Замок погружен в печаль и запустение, а колокола зазвенят лишь тогда, когда в замок явится законный владелец Корневиля. Сегодня ярмарка, появляется неизвестный никому моряк, недавно он спас тонущую девушку, затем передал ее на руки одному крестьянину Гренише, а сам удалился. Девушка была прекрасная Жермен, которая поклялась выйти замуж за своего спасителя, думая, что он из местных парней.
Дополнительная информация:
Страна: Россия .
Автор: Робер Планкетт.
Либретто: Л. Клервиль и Ш Габе.

Релиз
Рип sharky.

Качество видео:...VHSRip
Формат:.................AVI
Видео:..704x528 (1.33:1), 25 fps, XviD build 50 ~1149 kbps avg, 0.12 bit/pixel
Аудио:..48 kHz, AC3 Dolby Digital, 2/0 (L,R) ch, ~192 kbps

Отчет Media Info

General
Complete name : Kornevil'skie.kolokola.1996.XviD.VHSRip.fenixclub.avi
Format : AVI
Format/Info : Audio Video Interleave
File size : 1.45 GiB
Duration : 2h 34mn
Overall bit rate : 1 352 Kbps
Writing application : VirtualDubMod 1.5.10.3 | www.virtualdub-fr.org || (build 2550/release)
Writing library : VirtualDub build 28292/release
Video
ID : 0
Format : MPEG-4 Visual
Format profile : Advanced Simple@L5
Format settings, BVOP : 2
Format settings, QPel : No
Format settings, GMC : No warppoints
Format settings, Matrix : Default (H.263)
Muxing mode : Packed bitstream
Codec ID : XVID
Codec ID/Hint : XviD
Duration : 2h 34mn
Bit rate : 1 150 Kbps
Width : 704 pixels
Height : 528 pixels
Display aspect ratio : 4:3
Frame rate : 25.000 fps
Color space : YUV
Chroma subsampling : 4:2:0
Bit depth : 8 bits
Scan type : Progressive
Compression mode : Lossy
Bits/(Pixel*Frame) : 0.124
Stream size : 1.24 GiB (85%)
Writing library : XviD 1.2.1 (UTC 2008-12-04)
Audio
ID : 1
Format : AC-3
Format/Info : Audio Coding 3
Mode extension : CM (complete main)
Format settings, Endianness : Big
Codec ID : 2000
Duration : 2h 34mn
Bit rate mode : Constant
Bit rate : 192 Kbps
Channel(s) : 2 channels
Channel positions : Front: L R
Sampling rate : 48.0 KHz
Bit depth : 16 bits
Compression mode : Lossy
Delay relative to video : 24ms
Stream size : 211 MiB (14%)
Alignment : Split accross interleaves
Interleave, duration : 40 ms (1.00 video frame)
Interleave, preload duration : 500 ms

Скриншоты


Альтернативный хост





Показать сообщения:    

Текущее время: 05-Дек 13:33

Часовой пояс: UTC + 3


Вы не можете начинать темы
Вы не можете отвечать на сообщения
Вы не можете редактировать свои сообщения
Вы не можете удалять свои сообщения
Вы не можете голосовать в опросах
Вы не можете прикреплять файлы к сообщениям
Вы не можете скачивать файлы