Моцарт - Дон Жуан / Mozart - Don Giovanni /Aix-en-Provence 2002 (Peter Mattei,Gudjon Oskarsson,Alexandra Deshortie,Daniel Harding,Peter Brook) [2002, opera, DVDRip-AVC] русские субтитры


 

[Цитировать]

Моцарт - Дон Жуан / Mozart - Don Giovanni /Aix-en-Provence 2002
Год выпуска: 2002
Жанр: opera
Продолжительность: 02:37:54
Язык: Итальянский
Субтитры: Русские, английские
Дирижер: Daniel Harding
Режиссер: Питер Брук/Peter Brook
Исполнители: Don Giovanni - Peter Mattei
Il Commendatore - Gudjon Oskarsson
Donna Anna - Alexandra Deshorties
Don Ottavio - Mark Padmore
Donna Elvira - Mireille Delunsch
Leporello - Gilles Cachemaille
Masetto - Nathan Berg
Zerlina - Lisa Larsson
Малеровский камерный оркестр
Описание: Kультовая оперная постановка знаменитого театрального режиссера Питера Брука
на оперном фестивале в Экс-ан-Провансе.Тщательно выстроенные мизансцены и проработанные характеры,
удивительным образом организованное сценическое пространство.Органичная и созвучная режиссуре музыкальная
трактовка молодого дирижера Дэниела Хардинга. Исполнители буквально живут на сцене, излучая в зал мощную энергетику.
Если увидеть кадры этой постановки без звука, можно в первый момент не поверить, что это опера, насколько поведение персонажей.
Достижение такого результата потребовало некоторой, неизбежной, и даже необходимой, жертвы со стороны вокальной составляющей.
И эта жертва совершенно оправдана. Ведь опера - это вечный конфликт музыки и театра, где последний всегда проигрывает.
В данном случае музыка лишь слегка уступила, но театр приобрел значение ее равноправного партнера
Качество видео: DVDRip-AVC
Формат/Контейнер: MKV
Видео кодек: H.264
Аудио кодек: MP3
Видео поток: x264 720x576 (16:9) 25fps 1621 Kbps
Аудио поток: MP3 48000Hz stereo 320 Kbps

MI

Unique ID : 252487287600875624838727735997004952495 (0xBDF348640ED8C4C8A3258EC5FA16B3AF)
Format : Matroska
Format version : Version 2
File size : 2.14 GiB
Duration : 2h 37mn
Overall bit rate : 1 943 Kbps
Encoded date : UTC 2013-09-07 08:21:13
Writing application : mkvmerge v6.1.0 ('Old Devil') built on Mar 4 2013 09:10:42
Writing library : libebml v1.3.0 + libmatroska v1.4.0
Video
ID : 1
Format : AVC
Format/Info : Advanced Video Codec
Format profile : High@L4.1
Format settings, CABAC : Yes
Format settings, ReFrames : 5 frames
Codec ID : V_MPEG4/ISO/AVC
Duration : 2h 37mn
Bit rate : 1 621 Kbps
Width : 720 pixels
Height : 576 pixels
Display aspect ratio : 16:9
Frame rate mode : Constant
Frame rate : 25.000 fps
Standard : PAL
Color space : YUV
Chroma subsampling : 4:2:0
Bit depth : 8 bits
Scan type : Progressive
Bits/(Pixel*Frame) : 0.156
Stream size : 1.75 GiB (82%)
Writing library : x264 core 130 r2273 b3065e6
Encoding settings : cabac=1 / ref=5 / deblock=1:-1:-1 / analyse=0x3:0x113 / me=umh / subme=8 / psy=1 / psy_rd=1.00:0.20 / mixed_ref=1 / me_range=16 / chroma_me=1 / trellis=1 / 8x8dct=1 / cqm=0 / deadzone=21,11 / fast_pskip=1 / chroma_qp_offset=-3 / threads=6 / lookahead_threads=1 / sliced_threads=0 / nr=0 / decimate=0 / interlaced=0 / bluray_compat=0 / constrained_intra=0 / bframes=3 / b_pyramid=2 / b_adapt=2 / b_bias=0 / direct=3 / weightb=1 / open_gop=0 / weightp=2 / keyint=250 / keyint_min=25 / scenecut=40 / intra_refresh=0 / rc_lookahead=50 / rc=2pass / mbtree=1 / bitrate=1621 / ratetol=1.0 / qcomp=0.60 / qpmin=0 / qpmax=69 / qpstep=4 / cplxblur=20.0 / qblur=0.5 / ip_ratio=1.40 / aq=1:1.00
Default : Yes
Forced : No
Audio
ID : 2
Format : MPEG Audio
Format version : Version 1
Format profile : Layer 3
Codec ID : A_MPEG/L3
Codec ID/Hint : MP3
Duration : 2h 37mn
Bit rate mode : Constant
Bit rate : 320 Kbps
Channel(s) : 2 channels
Sampling rate : 48.0 KHz
Compression mode : Lossy
Stream size : 361 MiB (16%)
Writing library : LAME3.99r
Encoding settings : -m s -V 4 -q 0 -lowpass 20.5
Default : Yes
Forced : No



Показать сообщения:    

Текущее время: 05-Дек 13:32

Часовой пояс: UTC + 3


Вы не можете начинать темы
Вы не можете отвечать на сообщения
Вы не можете редактировать свои сообщения
Вы не можете удалять свои сообщения
Вы не можете голосовать в опросах
Вы не можете прикреплять файлы к сообщениям
Вы не можете скачивать файлы