Jacques Offenbach - La Grande-Duchesse de Gerolstein / Герцогиня Герольштейнская (А. Ширвиндт, М. Тер-Захарова, А. Брискиндова, О. Чудайкина) [1986, оперетта, DVB] Театральное училище им. Б. В. Щукина при театре им. Евг. Вахтангова


 

[Цитировать]

Герцогиня Герольштейнская
Название театра: Театральное училище им. Б. В. Щукина при театре им. Евг. Вахтангова
Жанр: оперетта
Год выпуска: 1986
Продолжительность: 01:05:23
Режиссёр: А. Ширвиндт, М. Тер-Захарова, А. Брискиндова, О. Чудайкина
В ролях: Людмила Артемьева, А. Бабинцев, А. Бельский, Александр Бобровский, Евгений Воскресенский (Бондаренко), Т. Борисова, Игорь Волков, Антон Голышев, Сергей Жигунов, Юрий Корнишин, Л. Корнишина, К. Крупченкова, Ирина Лазарева, Ирина Луковская, К. Мазуренко, Анастасия Минцковская, В. Никифоров, Людмила Николаева, Сергей Парфёнов, В. Рябов, Александр Симонец, Наталья Унгард (Тиховская), Б. Усманов, Т. Филатова, Сергей Чонишвили, Ольга Шорина
Описание: Дипломный спектакль 4-го курса актёрского факультета театрального училища им. Б. В. Щукина при театре им. Евг. Вахтангова.
В основе сюжета - любовные взаимоотношения между двумя молодыми и бездарными правителями враждующих государств - Великой герцогиней Герольштейнской и принцем Полем.
Доп. информация:
Запись потока *.ts со спутника EUTELSAT, ремукс в *.mpg программой VideoReDo.
Важно: окончание записи с титрами не сохранилось (смотрим первый скрин). Данные по актерам и году выпуска предоставлены коллегой Basilevs.
Качество видео: DVB
Формат видео: MPEG-PS
Видео: MPEG2 Video, 720x576 (4:3), 25,000 кадров/сек, 4 833 Кбит/сек
Аудио: MPEG Audio, 48,0 КГц, 192 Кбит/сек, 2 канала

MediaInfo

General
Complete name : D:\Torrent\ГЕРЦОГИНЯ ГЕРОЛЬШТЕЙНСКАЯ\ГЕРЦОГИНЯ ГЕРОЛЬШТЕЙНСКАЯ (Ностальгия).mpg
Format : MPEG-PS
File size : 2.34 GiB
Duration : 1h 5mn
Overall bit rate mode : Variable
Overall bit rate : 5 127 Kbps
Video
ID : 224 (0xE0)
Format : MPEG Video
Format version : Version 2
Format profile : Main@Main
Format settings, BVOP : Yes
Format settings, Matrix : Custom
Format settings, GOP : M=3, N=36
Duration : 1h 5mn
Bit rate mode : Variable
Bit rate : 4 833 Kbps
Maximum bit rate : 15.0 Mbps
Width : 720 pixels
Height : 576 pixels
Display aspect ratio : 4:3
Frame rate : 25.000 fps
Standard : PAL
Color space : YUV
Chroma subsampling : 4:2:0
Bit depth : 8 bits
Scan type : Interlaced
Scan order : Top Field First
Compression mode : Lossy
Bits/(Pixel*Frame) : 0.466
Stream size : 2.21 GiB (94%)
Audio
ID : 192 (0xC0)
Format : MPEG Audio
Format version : Version 1
Format profile : Layer 2
Duration : 1h 5mn
Bit rate mode : Constant
Bit rate : 192 Kbps
Channel(s) : 2 channels
Sampling rate : 48.0 KHz
Compression mode : Lossy
Stream size : 89.8 MiB (4%)

Скриншот с названием постановки

Скриншоты




Показать сообщения:    

Текущее время: 07-Дек 21:24

Часовой пояс: UTC + 3


Вы не можете начинать темы
Вы не можете отвечать на сообщения
Вы не можете редактировать свои сообщения
Вы не можете удалять свои сообщения
Вы не можете голосовать в опросах
Вы не можете прикреплять файлы к сообщениям
Вы не можете скачивать файлы