Mozart - Don Giovanni / Моцарт - Дон Жуан(Peter Mattei, Bryn Terfel, Анна Нетребко; Robert Carsen; Daniel Barenboim) La Scala Milan [2011, opera, HDTVRip]


 

[Цитировать]

Mozart - Don Giovanni / Моцарт - Дон Жуан
Год выпуска: 2011
Страна-производитель: Italia
Жанр: opera
Продолжительность: 01:36:57 + 01:30:47
Язык: Italiano
Субтитры: Неубиваемые французские субтитры
Дирижер: Daniel Barenboim
Режиссер: Robert Carsen
Исполнители:
Peter Mattei - Don Giovanni
Kwangchul Youn - Il Commendatore
Anna Netrebko - Donna Anna
Giuseppe Filianoti - Don Ottavio
Barbara Frittoli - Donna Elvira
Bryn Terfel - Leporello
Anna Prohaska - Zerlina
Stefan Kocan - Masetto
Choeur et Orchestre de la Scala de Milan
Сценография - Michael Levine
Костюмы - Brigitte Reiffenstuel
Свет - Robert Carsen and Peter Van Praet
Хореография - Philippe Giraudeau
Качество видео: HDTVRip
Формат/Контейнер: MKV
Видео кодек: H.264
Аудио кодек: MP2
Видео поток: 960x536 25fps 1811 Kbps
Аудио поток: 48000Hz stereo 256 Kbps

MI

General
Format : Matroska
Format version : Version 4 / Version 2
File size : 1.40 GiB
Duration : 1h 36mn
Overall bit rate : 2 069 Kbps
Encoded date : UTC 2013-08-10 19:51:18
Writing application : mkvmerge v6.1.0 ('Old Devil') built on Mar 4 2013 09:10:42
Writing library : libebml v1.3.0 + libmatroska v1.4.0
Video
ID : 1
Format : AVC
Format/Info : Advanced Video Codec
Format profile : High@L4.1
Format settings, CABAC : Yes
Format settings, ReFrames : 5 frames
Codec ID : V_MPEG4/ISO/AVC
Duration : 1h 36mn
Bit rate : 1 811 Kbps
Width : 960 pixels
Height : 536 pixels
Display aspect ratio : 16:9
Frame rate mode : Constant
Frame rate : 25.000 fps
Color space : YUV
Chroma subsampling : 4:2:0
Bit depth : 8 bits
Scan type : Progressive
Bits/(Pixel*Frame) : 0.141
Stream size : 1.20 GiB (86%)
Writing library : x264 core 130 r2273 b3065e6
Encoding settings : cabac=1 / ref=5 / deblock=1:-1:-1 / analyse=0x3:0x113 / me=umh / subme=8 / psy=1 / psy_rd=1.00:0.20 / mixed_ref=1 / me_range=16 / chroma_me=1 / trellis=1 / 8x8dct=1 / cqm=0 / deadzone=21,11 / fast_pskip=1 / chroma_qp_offset=-3 / threads=6 / lookahead_threads=1 / sliced_threads=0 / nr=0 / decimate=0 / interlaced=0 / bluray_compat=0 / constrained_intra=0 / bframes=3 / b_pyramid=2 / b_adapt=2 / b_bias=0 / direct=3 / weightb=1 / open_gop=0 / weightp=2 / keyint=250 / keyint_min=25 / scenecut=40 / intra_refresh=0 / rc_lookahead=50 / rc=2pass / mbtree=1 / bitrate=1811 / ratetol=1.0 / qcomp=0.60 / qpmin=0 / qpmax=69 / qpstep=4 / cplxblur=20.0 / qblur=0.5 / ip_ratio=1.40 / aq=1:1.00
Default : Yes
Forced : No
Audio
ID : 2
Format : MPEG Audio
Format version : Version 1
Format profile : Layer 2
Codec ID : A_MPEG/L2
Codec ID/Hint : MP2
Duration : 1h 36mn
Bit rate mode : Constant
Bit rate : 256 Kbps
Channel(s) : 2 channels
Sampling rate : 48.0 KHz
Compression mode : Lossy
Delay relative to video : 11ms
Stream size : 178 MiB (12%)
Language : German
Default : Yes
Forced : No

Скриншоты




Показать сообщения:    

Текущее время: 22-Янв 04:45

Часовой пояс: UTC + 3


Вы не можете начинать темы
Вы не можете отвечать на сообщения
Вы не можете редактировать свои сообщения
Вы не можете удалять свои сообщения
Вы не можете голосовать в опросах
Вы не можете прикреплять файлы к сообщениям
Вы не можете скачивать файлы