Benjamin Britten - The Rape of Lucretia / Бенджамин Бриттен - Поругание Лукреци (Leo Hussain, Christine Rice, Allan Clayton) [9.08.2015, Opera, HDTVRip]


 

[Цитировать]

Benjamin Britten - The Rape of Lucretia
Год выпуска: 2015
Лейбл: Glyndebourne
Страна-производитель: United Kingdom
Жанр: Opera
Продолжительность: 1 ч. 56 мин.
Субтитры: English
Режиссер/Хореограф: Fiona Shaw
Дирижер: Leo Hussain
Исполнители:
Lucretia - Christine Rice
Male Cjorus - Allan Clayton
Female Chorus - Kate Royal
Tarquinius - Duncan Rock
Collatinus - Matthew Rose
Junius - Michael Sumuel
Bianca - Catherine Wyn-Rogers
Lucia - Louise Alder
Доп. информация:
Либретто Ronald Duncan
Запись с прямой трансляции из Glyndebourne, 9 августа 2015

Описание

опера Б. Бриттена в 2 д., либретто Р. Данкана по мотивам одноименных поэмы У. Шекспира и драмы А. Обе, а также «Истории Рима от основания города» Тита Ливия. Премьера: Глайндборн, 12 июля 1946 г., силами артистов, вошедших год спустя в состав труппы «Инглиш опера груп», дирижер Э. Ансерме (К. Ферриер — Лукреция); 2-я редакция — 1947 г.
Римский историк Тацит рассказал историю добродетельной римлянки Лукреции, жены Луция Коллатина, которую обесчестил нашедший приют в ее доме Секст Тарквиний. Лукреция не смогла пережить позор и покончила жизнь самоубийством, открыв перед смертью мужу и отцу предательство Секста. Этот рассказ лег в основу многих произведений мировой литературы, в том числе Шекспира. Обращались к этой теме и оперные композиторы — А. Драги (1675), Р. Кайзер (1705), Г. Маршнер (1827).
Музыка Бриттена носит стилизованный характер, она нарочито приближена к Генделю и Пёрселлу, но облечена в камерную форму. Действие ведут, комментируя его, мужской и женский голоса (подобно античному хору). Музыка пластична, выразительна. Большой эмоциональной силы достигает ламен-то Лукреции в финале, предваряющее ее самоубийство. Аскетизм оперы связан не столько с ее камерностью, сколько с трактовкой темы. Осуждая Тарквиния и возвеличивая Лукрецию, автор рассматривает происшедшее как следствие жестокости. Опера завершается выражением надежды на грядущее смягчение нравов, обращенной к небесам мольбой.
А. Гозенпуд
Качество видео: HDTVRip
Формат/Контейнер: TS
Видео кодек: MPEG2
Аудио кодек: AC3
Видео поток: 20,3 Мбит/сек, 1920x1080 (16:9), 25,000 к/сек, MPEG Video (Version 2) (Main@High) (BVOP)
Аудио поток: English, 640 Кбит/сек, 48.0 КГц, 16 бит, 6 каналов, AC-3

Mediainfo

Общее
Идентификатор : 16 (0x10)
Полное имя : E:\Feed\The Rape Of Lucretia\The Rape Of Lucretia p1.ts
Формат : MPEG-TS
Размер файла : 7,88 Гбайт
Продолжительность : 51 м.
Режим общего битрейта : Переменный
Общий поток : 22,1 Мбит/сек
Видео
Идентификатор : 308 (0x134)
Идентификатор меню : 1 (0x1)
Формат : MPEG Video
Версия формата : Version 2
Профиль формата : Main@High
Параметр BVOP формата : Да
Параметр матрицы формата : По умолчанию
Параметр GOP формата : M=3, N=18
Идентификатор кодека : 2
Продолжительность : 51 м.
Вид битрейта : Переменный
Битрейт : 20,3 Мбит/сек
Максимальный битрейт : 21,4 Мбит/сек
Ширина : 1920 пикселей
Высота : 1080 пикселей
Соотношение сторон : 16:9
Описание активного формата : Full frame 16:9 image
Частота кадров : 25,000 кадров/сек
Цветовое пространство : YUV
Субдискретизация насыщенности : 4:2:0
Битовая глубина : 8 бит
Тип развёртки : Чересстрочная
Порядок развёртки : Верхнее поле первое
Метод сжатия : С потерями
Бит/(Пиксели*Кадры) : 0.392
Временной код первого кадра : 00:00:00:00
Оригинал временного кода : Group of pictures header
Размер потока : 7,26 Гбайт (92%)
Закодированный размер потока оригинала : (dvd5: Nov 27 2014)
Библиотека кодирования : (dvd5: Nov 27 2014)
Аудио
Идентификатор : 256 (0x100)
Идентификатор меню : 1 (0x1)
Формат : AC-3
Формат/Информация : Audio Coding 3
Расширение режима : CM (complete main)
Параметр Endianness формата : Big
Идентификатор кодека : 129
Продолжительность : 51 м.
Вид битрейта : Постоянный
Битрейт : 640 Кбит/сек
Каналы : 6 каналов
Расположение каналов : Front: L C R, Side: L R, LFE
Частота : 48,0 КГц
Битовая глубина : 16 бит
Метод сжатия : С потерями
Размер потока : 234 Мбайт (3%)
Общее
Идентификатор : 16 (0x10)
Полное имя : E:\Feed\The Rape Of Lucretia\The Rape Of Lucretia p2.ts
Формат : MPEG-TS
Размер файла : 10,2 Гбайт
Продолжительность : 1 ч. 5 м.
Режим общего битрейта : Переменный
Общий поток : 22,1 Мбит/сек
Видео
Идентификатор : 308 (0x134)
Идентификатор меню : 1 (0x1)
Формат : MPEG Video
Версия формата : Version 2
Профиль формата : Main@High
Параметр BVOP формата : Да
Параметр матрицы формата : По умолчанию
Параметр GOP формата : M=3, N=18
Идентификатор кодека : 2
Продолжительность : 1 ч. 5 м.
Вид битрейта : Переменный
Битрейт : 20,3 Мбит/сек
Максимальный битрейт : 21,4 Мбит/сек
Ширина : 1920 пикселей
Высота : 1080 пикселей
Соотношение сторон : 16:9
Описание активного формата : Full frame 16:9 image
Частота кадров : 25,000 кадров/сек
Цветовое пространство : YUV
Субдискретизация насыщенности : 4:2:0
Битовая глубина : 8 бит
Тип развёртки : Чересстрочная
Порядок развёртки : Верхнее поле первое
Метод сжатия : С потерями
Бит/(Пиксели*Кадры) : 0.392
Временной код первого кадра : 00:00:00:00
Оригинал временного кода : Group of pictures header
Размер потока : 9,35 Гбайт (92%)
Закодированный размер потока оригинала : (dvd5: Nov 27 2014)
Библиотека кодирования : (dvd5: Nov 27 2014)
Аудио
Идентификатор : 256 (0x100)
Идентификатор меню : 1 (0x1)
Формат : AC-3
Формат/Информация : Audio Coding 3
Расширение режима : CM (complete main)
Параметр Endianness формата : Big
Идентификатор кодека : 129
Продолжительность : 1 ч. 5 м.
Вид битрейта : Постоянный
Битрейт : 640 Кбит/сек
Каналы : 6 каналов
Расположение каналов : Front: L C R, Side: L R, LFE
Частота : 48,0 КГц
Битовая глубина : 16 бит
Метод сжатия : С потерями
Задержка видео : -40 мс.
Размер потока : 301 Мбайт (3%)

Скриншоты








Показать сообщения:    

Текущее время: 11-Дек 11:06

Часовой пояс: UTC + 3


Вы не можете начинать темы
Вы не можете отвечать на сообщения
Вы не можете редактировать свои сообщения
Вы не можете удалять свои сообщения
Вы не можете голосовать в опросах
Вы не можете прикреплять файлы к сообщениям
Вы не можете скачивать файлы