Carmen - Georges Bizet / Кармен - Жорж Бизе (Enrico Castiglione) [15.07.2015, Opera, HDTVRip]


 

[Цитировать]

Georges Bizet - Carmen / Жорж Бизе - Кармен
Год выпуска: 2015
Лейбл: Taormina Festival
Страна-производитель: Италия
Жанр: Opera
Продолжительность: 03:13:52
Язык: французский
Исполнители:
Carmen – Elena Maximova,
Micaela - Johanna Parisi,
Frasquita - Sarah Baratta,
Mercedes - Irene Molinari,
Don Jose - Giancarlo Monsalve,
Escamillo - Michael Bachtadze,
Dancario - Federico Caverzan,
Remendado – Guiseppe Di Stefano,
Zuniga – Gianluca Lentini,
Morales – Giovanni Di Mare.
Lillas-Pastia – Orazio Corsaro
Orchestra Simfonica Taormina Opera Festival
Режиссер: Myron Michailidis
Директор: Enrico Castiglione
Запись с прямой трансляции в Teatro Antico, 15 июля, 2015.
Запись велась без перерыва, т.е. где то есть паузы-антракты между актами (их 4), и в этом видео они не вырезаны.
Качество видео: HDTVRip
Формат/Контейнер: TS
Видео кодек: MPEG Video
Аудио кодек: MPEG Audio
Видео поток: 19,5 Мбит/сек, 1920x1080 (16:9), 25,000 к/сек, MPEG Video (Version 2) (Main@High) (BVOP)
Аудио поток 1: English, 384 Кбит/сек, 48,0 КГц, 2 канала, MPEG Audio, Version 1, Layer 2
Аудио поток 2: English, 448 Кбит/сек, 48.0 КГц, 16 бит, 6 каналов, AC-3

Mediainfo

Общее
Идентификатор : 1 (0x1)
Полное имя : Carmen.ts
Формат : MPEG-TS
Размер файла : 29,0 Гбайт
Продолжительность : 3 ч. 13 м.
Время начала : UTC 1999-01-01 09:12:04
Режим общего битрейта : Постоянный
Общий поток : 21,4 Мбит/сек
Видео
Идентификатор : 33 (0x21)
Идентификатор меню : 1 (0x1)
Формат : MPEG Video
Версия формата : Version 2
Профиль формата : Main@High
Параметр BVOP формата : Да
Параметр матрицы формата : По умолчанию
Параметр GOP формата : Variable
Идентификатор кодека : 2
Продолжительность : 3 ч. 13 м.
Вид битрейта : Переменный
Битрейт : 19,5 Мбит/сек
Максимальный битрейт : 18,0 Мбит/сек
Ширина : 1920 пикселей
Высота : 1080 пикселей
Соотношение сторон : 16:9
Описание активного формата : Full frame 16:9 image
Частота кадров : 25,000 кадров/сек
Цветовое пространство : YUV
Субдискретизация насыщенности : 4:2:0
Битовая глубина : 8 бит
Тип развёртки : Чересстрочная
Порядок развёртки : Верхнее поле первое
Метод сжатия : С потерями
Бит/(Пиксели*Кадры) : 0.377
Размер потока : 26,4 Гбайт (91%)
Аудио #1
Идентификатор : 34 (0x22)
Идентификатор меню : 1 (0x1)
Формат : MPEG Audio
Версия формата : Version 1
Профиль формата : Layer 2
Идентификатор кодека : 3
Продолжительность : 3 ч. 13 м.
Вид битрейта : Постоянный
Битрейт : 384 Кбит/сек
Каналы : 2 канала
Частота : 48,0 КГц
Метод сжатия : С потерями
Задержка видео : -146 мс.
Размер потока : 532 Мбайт (2%)
Язык : English
Аудио #2
Идентификатор : 35 (0x23)
Идентификатор меню : 1 (0x1)
Формат : AC-3
Формат/Информация : Audio Coding 3
Расширение режима : CM (complete main)
Параметр Endianness формата : Big
Идентификатор кодека : 6
Продолжительность : 3 ч. 13 м.
Вид битрейта : Постоянный
Битрейт : 448 Кбит/сек
Каналы : 6 каналов
Расположение каналов : Front: L C R, Side: L R, LFE
Частота : 48,0 КГц
Битовая глубина : 16 бит
Метод сжатия : С потерями
Задержка видео : -168 мс.
Размер потока : 621 Мбайт (2%)
Язык : English
Меню
Идентификатор : 32 (0x20)
Идентификатор меню : 1 (0x1)
Продолжительность : 3 ч. 13 м.
Список : 33 (0x21) (MPEG Video) / 34 (0x22) (MPEG Audio, English) / 35 (0x23) (AC-3, English)
Язык : / English / English
Название сервиса : Videobank ITA287
Поставщик сервиса : Videobank S.p.A
Тип сервиса : digital television
Максимальный битрейт : 200000000



Показать сообщения:    

Текущее время: 05-Дек 05:30

Часовой пояс: UTC + 3


Вы не можете начинать темы
Вы не можете отвечать на сообщения
Вы не можете редактировать свои сообщения
Вы не можете удалять свои сообщения
Вы не можете голосовать в опросах
Вы не можете прикреплять файлы к сообщениям
Вы не можете скачивать файлы