Джузеппе Верди - Трубадур (Английская Королевская опера; Брайан Лардж, Джон Харрисон; Дмитрий Хворостовский, Rizzi) / Giuseppe Verdi - Il trovatore (Royal Opera Chorus; Brian Large, John Harrison; Dmitri Hvorostovsky) [2002, Opera, BDRip 720p]


 

[Цитировать]

Джузеппе Верди - Трубадур / Giuseppe Verdi - Il trovatore
Год выпуска: 2002
Лейбл: OpusArte, BBC
Страна-производитель: Великобритания
Жанр: Opera
Продолжительность: 02:16:49
Язык: Итальянский
Режиссер: Brian Large (Брайан Лардж), John Harrison (Джон Харрисон)
Дирижер: Carlo Rizzi (Карло Ризи)
Исполнители:
Dmitri Hvorostovsky (Дмитрий Хворостовский) - Граф ди Луна
Veronica Villaroel (Вероника Виллароел) - Леонора, герцогиня
Jose Cura (Хосе Кура) - Манрико, трубадур
Yvonne Naef (Ивонн Наеф) - Азучена, цыганка
Tomas Tomasson (Томас Томассон) - Феррандо, начальник графской стражи
Gweneth-Ann Jeffers (Гвинет-Энн Джефферс) - Инес, наперсница Леоноры
Edgaras Montvidas (Едгарас Монтвидас) - Руис, друг Манрико
Douglas Telfer (Дуглас Телфер) - Гонец
Thomas Barnard (Томас Бернард) - Старый цыган
Royal Opera Chorus (Английская Королевская опера)
Описание: Одна из лучших на сегодняшний день постановок в неповторимом исполнении таких звезд оперной сцены как Хосе Кура и Дмитрия Хворостовского. Oпера в четырех действиях на либретто (по-итальянски) Сальваторе Каммарано, основанное на одноименной драме Антонио Гарсиа Гутьерреса, которая, в свою очередь, описывает некоторые реально произошедшие события. «Трубадур» — драма острых контрастов, бурных столкновений, сильных, романтически приподнятых чувств. Воссоздавая трагические судьбы героев оперы, воплощая их переживания, композитор большое внимание уделил показу жизненного фона разворачивающихся событий. Колоритные образы цыган, монахов, солдат и приближенных графа, очерченные в рельефных, запоминающихся хорах, придают опере разнообразие, оживляют действие. Музыка «Трубадура» богата красивыми, свободно льющимися мелодиями, близкими народным напевам. Не случайно многие из них стали в Италии широко известными и любимыми народом революционными песнями.
История разворачивается вокруг четырех лиц: графа ди Луна, у которого есть тайна, Леоноры, трубадура Манрико и цыганки Азучены, которая знает тайну графа. Леонору любят граф и Манрико, она, естественно, влюблена в Манрико. Манрико, конечно, враг графа, но не знает ни его, ни своей тайны. Он - похищенный брат графа. Но об этом в конце оперы узнают все, хотя догадываются с самого начала.
Когда граф узнает, что у него есть соперник, то вызывает Манрико на дуэль. Леонора, думая, что Манрико убит, собирается в монастырь, но граф хочет ей помешать, помешать хочет и Манрико, воюет с графом, арестован. Леонора, чтобы спасти его, соглашается стать женой графа, выпивает яд, приходит в тюрьму к Манрико сказать, что он свободен, и умирает в его обьятиях, это видит граф, возмущен, естественно, вероломством будущей жены, отправляет на казнь Манрико, казнит его и слышит от цыганки Азучены, что это его брат.

Оригинальное описание

Jose Cura, Dmitri Hvorostovsky, Veronica Villarroel and Yvonne Naef lead the star cast of Verdi's blazingly passionate opera, in Elijah Moshinsky's new Royal Opera House production co-produced with Teatro REal Madrid, with sets by the noted film designer Dante Ferretti and costumes by Anne Tilby.
Либретто
Качество видео: BDRip - Blu-ray (36.49 GB)
Формат/Контейнер: MKV
Видео кодек: H.264
Аудио кодек: AC3
Видео поток: H.264, 1280x720, 6361 kbps, 29.970 fps
Аудио поток: AC3, 448 kbps, 48 kHz, 6 ch. AC3, 448 kbps, 48 kHz, 2 ch

MediaInfo

Общее
Уникальный идентификатор : 242209152616594446798781022668017650411 (0xB637C9362CD05C40BEFE0805F7304AEB)
Полное имя : W:\Torrent_4\Верди - Трубадур (Royal Opera House, Хворостовский) (2002) (BDRip 720p, AC3 5.1).mkv
Формат : Matroska
Версия формата : Version 4 / Version 2
Размер файла : 7,08 Гбайт
Продолжительность : 2 ч. 16 м.
Режим общего битрейта : Переменный
Общий поток : 7405 Кбит/сек
Дата кодирования : UTC 2015-03-08 07:49:24
Программа кодирования : mkvmerge v7.7.0 ('Six Voices') 64bit built on Feb 28 2015 23:39:33
Библиотека кодирования : libebml v1.3.1 + libmatroska v1.4.2
DURATION : 02:16:49.216000000
NUMBER_OF_FRAMES : 256538
NUMBER_OF_BYTES : 459716096
_STATISTICS_WRITING_APP : mkvmerge v7.7.0 ('Six Voices') 64bit built on Feb 28 2015 23:39:33
_STATISTICS_WRITING_DATE_UTC : 2015-03-08 07:49:24
_STATISTICS_TAGS : BPS DURATION NUMBER_OF_FRAMES NUMBER_OF_BYTES
Видео
Идентификатор : 1
Формат : AVC
Формат/Информация : Advanced Video Codec
Профиль формата : Main@L4.1
Параметр CABAC формата : Да
Параметр ReFrames формата : 3 кадра
Идентификатор кодека : V_MPEG4/ISO/AVC
Продолжительность : 2 ч. 16 м.
Вид битрейта : Переменный
Битрейт : 6361 Кбит/сек
Максимальный битрейт : 8000 Кбит/сек
Ширина : 1280 пикселей
Высота : 720 пикселей
Соотношение сторон : 16:9
Режим частоты кадров : Постоянный
Частота кадров : 29,970 кадров/сек
Стандарт вещания : NTSC
Цветовое пространство : YUV
Субдискретизация насыщенности : 4:2:0
Битовая глубина : 8 бит
Тип развёртки : Прогрессивная
Бит/(Пиксели*Кадры) : 0.230
Размер потока : 6,08 Гбайт (86%)
Язык : English
Default : Да
Forced : Нет
colour_range : Limited
Аудио #1
Идентификатор : 2
Формат : AC-3
Формат/Информация : Audio Coding 3
Расширение режима : CM (complete main)
Параметр Endianness формата : Big
Идентификатор кодека : A_AC3
Продолжительность : 2 ч. 16 м.
Вид битрейта : Постоянный
Битрейт : 448 Кбит/сек
Каналы : 6 каналов
Расположение каналов : Front: L C R, Side: L R, LFE
Частота : 48,0 КГц
Битовая глубина : 16 бит
Метод сжатия : С потерями
Размер потока : 438 Мбайт (6%)
Заголовок : AC3 5.1
Язык : Italian
Default : Да
Forced : Нет
Аудио #2
Идентификатор : 3
Формат : AC-3
Формат/Информация : Audio Coding 3
Расширение режима : CM (complete main)
Параметр Endianness формата : Big
Идентификатор кодека : A_AC3
Продолжительность : 2 ч. 16 м.
Вид битрейта : Постоянный
Битрейт : 448 Кбит/сек
Каналы : 2 канала
Расположение каналов : Front: L R
Частота : 48,0 КГц
Битовая глубина : 16 бит
Метод сжатия : С потерями
Размер потока : 438 Мбайт (6%)
Заголовок : AC3 2.0
Язык : Italian
Default : Нет
Forced : Нет

Скриншоты





Показать сообщения:    

Текущее время: 04-Дек 11:10

Часовой пояс: UTC + 3


Вы не можете начинать темы
Вы не можете отвечать на сообщения
Вы не можете редактировать свои сообщения
Вы не можете удалять свои сообщения
Вы не можете голосовать в опросах
Вы не можете прикреплять файлы к сообщениям
Вы не можете скачивать файлы