Винченцо Беллини - Норма (Радвановски, Кунде, Губанова) / Vincenzo Bellini - Norma (Radvanovsky, Kunde) Ренато Палумбо / Renato Palumbo (Kevin Newbury) [2015, Opera, HDTVRip-AVC 720p] Sub [Русские][Multisub\'s]


 

[Цитировать]

-ОПЕРНЫЙ ТЕАТР * ЛИСЕУ * ПРЕДСТАВЛЯЕТ
ВИНЧЕНЦО БЕЛЛИНИ
»«Н О Р М А»«
Либретто Феличе Романи по мотивам
одноимённой пьесы Луи-Антуана-Александра Сомэ (1788 – 1845)
-- •••
Язык: Итальянский
Субтитры/Subtitles: РУССКИЕ,
English, French, German, Italiano, Espanol

Продолжительность: 180 min.
•••
НОРМА Сондра РАДВАНОВСКИ Sondra Radvanovsky
АДАЛЬЖИЗА Екатерина ГУБАНОВА
ПОЛЛИОН Грегори КУНДЕ Gregory Kunde
ОРОВЕЗ Реймонд ЭЙСЕТО Raymond Aceto
ФЛАВИЙ Франсиско ВАС Francisco Vas
КЛОТИЛЬДА Анна ПУЧЕ Anna Puche
ХОР и ОРКЕСТР ТЕАТРА ЛИСЕУ
ДИРИЖЁР Ренато ПАЛУМБО Renato Palumbo
ХОРМЕЙСТЕР Петер БУРИАН Peter Burian

Постановка: КЕВИН НЬЮБЕРИ Kevin Newbury
Сценография: ДЭВИД КОРИНС David Korins
Костюмер: ДЖЕССИКА ЯН Jessica Jahn
•••
Качество видео: HDTVRip-AVC (Sourse FullHD Спасибо, akacha!)
Формат/Контейнер: MKV
Видео поток: H.264, 1280x720, 4000 kbps, 25,000 fps.
Аудио поток: Italiano, AC3 448 kbps, 48,0 KHz, 6 ch original

Скриншоты

MediaInfoPart1


-

x264.log


avs [info]: 1280x720p 1:1 @ 25/1 fps (cfr)
x264 [info]: using SAR=1/1
x264 [info]: using cpu capabilities: MMX2 SSE2Fast LZCNT
x264 [info]: profile High, level 4.1
x264 [info]: frame I:782 Avg QP:11.76 size:105781
x264 [info]: frame P:53553 Avg QP:13.37 size: 37344
x264 [info]: frame B:95603 Avg QP:15.77 size: 9584
x264 [info]: consecutive B-frames: 7.8% 17.8% 11.5% 63.0%
x264 [info]: mb I I16..4: 10.9% 67.6% 21.5%
x264 [info]: mb P I16..4: 3.5% 8.1% 1.2% P16..4: 34.7% 27.6% 16.9% 0.0% 0.0% skip: 8.1%
x264 [info]: mb B I16..4: 0.7% 0.5% 0.1% B16..8: 39.3% 11.9% 3.0% direct: 6.0% skip:38.5% L0:42.1% L1:46.1% BI:11.8%
x264 [info]: 8x8 transform intra:60.8% inter:68.6%
x264 [info]: direct mvs spatial:95.1% temporal:4.9%
x264 [info]: coded y,uvDC,uvAC intra: 49.1% 83.8% 71.0% inter: 25.9% 36.0% 5.7%
x264 [info]: i16 v,h,dc,p: 67% 13% 9% 11%
x264 [info]: i8 v,h,dc,ddl,ddr,vr,hd,vl,hu: 16% 8% 29% 7% 8% 9% 7% 9% 8%
x264 [info]: i4 v,h,dc,ddl,ddr,vr,hd,vl,hu: 17% 9% 14% 8% 12% 13% 9% 10% 9%
x264 [info]: i8c dc,h,v,p: 51% 20% 18% 11%
x264 [info]: Weighted P-Frames: Y:2.8% UV:1.2%
x264 [info]: ref P L0: 54.9% 6.5% 25.7% 12.5% 0.3%
x264 [info]: ref B L0: 78.9% 17.6% 3.5%
x264 [info]: ref B L1: 92.6% 7.4%
x264 [info]: kb/s:4000.08
encoded 149938 frames, 8.75 fps, 4000.08 kb/s
Final statistics
Video Bitrate Desired: 4000 kbit/s
Video Bitrate Obtained (approximate): 4001 kbit/s
-
General
Unique ID : 171000794563254083644891738812791142467 (0x80A58E197B9EF51ABEF58CC47C483843)
Complete name : Norma (Radvanovsky) Licey 2015\Norma (Radvanovsky) Part1.mkv
Format : Matroska
Format version : Version 4 / Version 2
File size : 3.11 GiB
Duration : 1h 39mn
Overall bit rate : 4 450 Kbps
Encoded date : UTC 2015-02-25 12:16:22
Writing application : mkvmerge v7.5.0 ('Glass Culture') 32bit built on Jan 4 2015 16:37:25
Writing library : libebml v1.3.1 + libmatroska v1.4.2
DURATION : 01:28:26.056000000
NUMBER_OF_FRAMES : 257
NUMBER_OF_BYTES : 11600
_STATISTICS_WRITING_APP : mkvmerge v7.5.0 ('Glass Culture') 32bit built on Jan 4 2015 16:37:25
_STATISTICS_WRITING_DATE_UTC : 2015-02-25 12:16:22
_STATISTICS_TAGS : BPS DURATION NUMBER_OF_FRAMES NUMBER_OF_BYTES
Video
ID : 1
Format : AVC
Format/Info : Advanced Video Codec
Format profile : High@L4.1
Format settings, CABAC : Yes
Format settings, ReFrames : 4 frames
Codec ID : V_MPEG4/ISO/AVC
Duration : 1h 39mn
Bit rate : 4 000 Kbps
Width : 1 280 pixels
Height : 720 pixels
Display aspect ratio : 16:9
Frame rate mode : Constant
Frame rate : 25.000 fps
Color space : YUV
Chroma subsampling : 4:2:0
Bit depth : 8 bits
Scan type : Progressive
Bits/(Pixel*Frame) : 0.174
Stream size : 2.73 GiB (88%)
Writing library : x264 core 142 r2431 ac76440
Encoding settings : cabac=1 / ref=3 / deblock=1:0:0 / analyse=0x3:0x113 / me=umh / subme=9 / psy=1 / psy_rd=1.00:0.00 / mixed_ref=1 / me_range=16 / chroma_me=1 / trellis=1 / 8x8dct=1 / cqm=0 / deadzone=21,11 / fast_pskip=1 / chroma_qp_offset=-2 / threads=4 / lookahead_threads=1 / sliced_threads=0 / nr=0 / decimate=1 / interlaced=0 / bluray_compat=0 / constrained_intra=0 / bframes=3 / b_pyramid=2 / b_adapt=1 / b_bias=0 / direct=3 / weightb=1 / open_gop=0 / weightp=2 / keyint=250 / keyint_min=25 / scenecut=40 / intra_refresh=0 / rc_lookahead=40 / rc=2pass / mbtree=1 / bitrate=4000 / ratetol=1.0 / qcomp=0.60 / qpmin=10 / qpmax=51 / qpstep=4 / cplxblur=20.0 / qblur=0.5 / vbv_maxrate=62500 / vbv_bufsize=78125 / nal_hrd=none / filler=0 / ip_ratio=1.40 / aq=1:1.00
Language : English
Default : Yes
Forced : No
DURATION : 01:39:57.520000000
NUMBER_OF_FRAMES : 149938
NUMBER_OF_BYTES : 2998821914
_STATISTICS_WRITING_APP : mkvmerge v7.5.0 ('Glass Culture') 32bit built on Jan 4 2015 16:37:25
_STATISTICS_WRITING_DATE_UTC : 2015-02-25 12:16:22
_STATISTICS_TAGS : BPS DURATION NUMBER_OF_FRAMES NUMBER_OF_BYTES
Audio
ID : 2
Format : AC-3
Format/Info : Audio Coding 3
Mode extension : CM (complete main)
Format settings, Endianness : Big
Codec ID : A_AC3
Duration : 1h 39mn
Bit rate mode : Constant
Bit rate : 448 Kbps
Channel(s) : 6 channels
Channel positions : Front: L C R, Side: L R, LFE
Sampling rate : 48.0 KHz
Bit depth : 16 bits
Compression mode : Lossy
Stream size : 320 MiB (10%)
Language : Italian
Default : Yes
Forced : No
Text #1
ID : 3
Format : UTF-8
Codec ID : S_TEXT/UTF8
Codec ID/Info : UTF-8 Plain Text
Language : Russian
Default : Yes
Forced : No
Text #2
ID : 4
Format : UTF-8
Codec ID : S_TEXT/UTF8
Codec ID/Info : UTF-8 Plain Text
Language : English
Default : No
Forced : No
Text #3
ID : 5
Format : UTF-8
Codec ID : S_TEXT/UTF8
Codec ID/Info : UTF-8 Plain Text
Language : German
Default : No
Forced : No
Text #4
ID : 6
Format : UTF-8
Codec ID : S_TEXT/UTF8
Codec ID/Info : UTF-8 Plain Text
Language : French
Default : No
Forced : No
Text #5
ID : 7
Format : UTF-8
Codec ID : S_TEXT/UTF8
Codec ID/Info : UTF-8 Plain Text
Language : Italian
Default : No
Forced : No
Text #6
ID : 8
Format : UTF-8
Codec ID : S_TEXT/UTF8
Codec ID/Info : UTF-8 Plain Text
Language : Spanish
Default : No
Forced : No

Part2


-

x264.log


avs [info]: 1280x720p 1:1 @ 25/1 fps (cfr)
x264 [info]: using SAR=1/1
x264 [info]: using cpu capabilities: MMX2 SSE2Fast LZCNT
x264 [info]: profile High, level 4.1
x264 [info]: frame I:682 Avg QP:11.53 size: 95692
x264 [info]: frame P:43554 Avg QP:13.03 size: 36101
x264 [info]: frame B:77864 Avg QP:15.24 size: 10332
x264 [info]: consecutive B-frames: 6.6% 21.6% 10.7% 61.1%
x264 [info]: mb I I16..4: 10.2% 70.2% 19.6%
x264 [info]: mb P I16..4: 4.0% 8.7% 1.2% P16..4: 34.3% 28.7% 17.8% 0.0% 0.0% skip: 5.3%
x264 [info]: mb B I16..4: 1.0% 0.6% 0.1% B16..8: 39.7% 13.1% 3.5% direct: 6.8% skip:35.2% L0:42.4% L1:45.9% BI:11.7%
x264 [info]: 8x8 transform intra:58.9% inter:69.1%
x264 [info]: direct mvs spatial:94.1% temporal:5.9%
x264 [info]: coded y,uvDC,uvAC intra: 46.9% 87.7% 76.6% inter: 27.4% 40.5% 6.7%
x264 [info]: i16 v,h,dc,p: 73% 13% 10% 4%
x264 [info]: i8 v,h,dc,ddl,ddr,vr,hd,vl,hu: 14% 7% 32% 7% 8% 9% 7% 9% 8%
x264 [info]: i4 v,h,dc,ddl,ddr,vr,hd,vl,hu: 16% 8% 16% 8% 12% 13% 9% 10% 9%
x264 [info]: i8c dc,h,v,p: 53% 21% 18% 8%
x264 [info]: Weighted P-Frames: Y:1.8% UV:0.4%
x264 [info]: ref P L0: 55.1% 6.5% 25.7% 12.5% 0.2%
x264 [info]: ref B L0: 79.0% 17.5% 3.5%
x264 [info]: ref B L1: 93.0% 7.0%
x264 [info]: kb/s:4000.18
encoded 122100 frames, 8.35 fps, 4000.19 kb/s
Final statistics
Video Bitrate Desired: 4000 kbit/s
Video Bitrate Obtained (approximate): 4001 kbit/s
-
General
Unique ID : 195735817852042180588885675452733553474 (0x934158E7476C19C290FE9E1386A77B42)
Complete name : Norma (Radvanovsky) Licey 2015\Norma (Radvanovsky) Part2.mkv
Format : Matroska
Format version : Version 4 / Version 2
File size : 2.53 GiB
Duration : 1h 21mn
Overall bit rate : 4 450 Kbps
Encoded date : UTC 2015-02-26 08:14:22
Writing application : mkvmerge v7.5.0 ('Glass Culture') 32bit built on Jan 4 2015 16:37:25
Writing library : libebml v1.3.1 + libmatroska v1.4.2
DURATION : 01:07:07.182000000
NUMBER_OF_FRAMES : 237
NUMBER_OF_BYTES : 9888
_STATISTICS_WRITING_APP : mkvmerge v7.5.0 ('Glass Culture') 32bit built on Jan 4 2015 16:37:25
_STATISTICS_WRITING_DATE_UTC : 2015-02-26 08:14:22
_STATISTICS_TAGS : BPS DURATION NUMBER_OF_FRAMES NUMBER_OF_BYTES
Video
ID : 1
Format : AVC
Format/Info : Advanced Video Codec
Format profile : High@L4.1
Format settings, CABAC : Yes
Format settings, ReFrames : 4 frames
Codec ID : V_MPEG4/ISO/AVC
Duration : 1h 21mn
Bit rate : 4 000 Kbps
Width : 1 280 pixels
Height : 720 pixels
Display aspect ratio : 16:9
Frame rate mode : Constant
Frame rate : 25.000 fps
Color space : YUV
Chroma subsampling : 4:2:0
Bit depth : 8 bits
Scan type : Progressive
Bits/(Pixel*Frame) : 0.174
Stream size : 2.23 GiB (88%)
Writing library : x264 core 142 r2431 ac76440
Encoding settings : cabac=1 / ref=3 / deblock=1:0:0 / analyse=0x3:0x113 / me=umh / subme=9 / psy=1 / psy_rd=1.00:0.00 / mixed_ref=1 / me_range=16 / chroma_me=1 / trellis=1 / 8x8dct=1 / cqm=0 / deadzone=21,11 / fast_pskip=1 / chroma_qp_offset=-2 / threads=4 / lookahead_threads=1 / sliced_threads=0 / nr=0 / decimate=1 / interlaced=0 / bluray_compat=0 / constrained_intra=0 / bframes=3 / b_pyramid=2 / b_adapt=1 / b_bias=0 / direct=3 / weightb=1 / open_gop=0 / weightp=2 / keyint=250 / keyint_min=25 / scenecut=40 / intra_refresh=0 / rc_lookahead=40 / rc=2pass / mbtree=1 / bitrate=4000 / ratetol=1.0 / qcomp=0.60 / qpmin=10 / qpmax=51 / qpstep=4 / cplxblur=20.0 / qblur=0.5 / vbv_maxrate=62500 / vbv_bufsize=78125 / nal_hrd=none / filler=0 / ip_ratio=1.40 / aq=1:1.00
Language : English
Default : Yes
Forced : No
DURATION : 01:21:24.000000000
NUMBER_OF_FRAMES : 122100
NUMBER_OF_BYTES : 2442112914
_STATISTICS_WRITING_APP : mkvmerge v7.5.0 ('Glass Culture') 32bit built on Jan 4 2015 16:37:25
_STATISTICS_WRITING_DATE_UTC : 2015-02-26 08:14:22
_STATISTICS_TAGS : BPS DURATION NUMBER_OF_FRAMES NUMBER_OF_BYTES
Audio
ID : 2
Format : AC-3
Format/Info : Audio Coding 3
Mode extension : CM (complete main)
Format settings, Endianness : Big
Codec ID : A_AC3
Duration : 1h 21mn
Bit rate mode : Constant
Bit rate : 448 Kbps
Channel(s) : 6 channels
Channel positions : Front: L C R, Side: L R, LFE
Sampling rate : 48.0 KHz
Bit depth : 16 bits
Compression mode : Lossy
Stream size : 261 MiB (10%)
Language : Italian
Default : Yes
Forced : No
Text #1
ID : 3
Format : UTF-8
Codec ID : S_TEXT/UTF8
Codec ID/Info : UTF-8 Plain Text
Language : Russian
Default : Yes
Forced : No
Text #2
ID : 4
Format : UTF-8
Codec ID : S_TEXT/UTF8
Codec ID/Info : UTF-8 Plain Text
Language : English
Default : No
Forced : No
Text #3
ID : 5
Format : UTF-8
Codec ID : S_TEXT/UTF8
Codec ID/Info : UTF-8 Plain Text
Language : German
Default : No
Forced : No
Text #4
ID : 6
Format : UTF-8
Codec ID : S_TEXT/UTF8
Codec ID/Info : UTF-8 Plain Text
Language : French
Default : No
Forced : No
Text #5
ID : 7
Format : UTF-8
Codec ID : S_TEXT/UTF8
Codec ID/Info : UTF-8 Plain Text
Language : Italian
Default : No
Forced : No
Text #6
ID : 8
Format : UTF-8
Codec ID : S_TEXT/UTF8
Codec ID/Info : UTF-8 Plain Text
Language : Spanish
Default : No
Forced : No
***TV Broadcast, 2015



Показать сообщения:    

Текущее время: 11-Дек 13:01

Часовой пояс: UTC + 3


Вы не можете начинать темы
Вы не можете отвечать на сообщения
Вы не можете редактировать свои сообщения
Вы не можете удалять свои сообщения
Вы не можете голосовать в опросах
Вы не можете прикреплять файлы к сообщениям
Вы не можете скачивать файлы