Джакомо Пуччини - Богема (Роберт Дорнхельм; Анна Нетребко, Роландо Вильясон) / Giacomo Puccini - La Boheme (Robert Dornhelm; Anna Netrebko, Rolando Villazon) [2008, Film-opera, BDRip 720p, русские субтитры]


 

[Цитировать]

Джакомо Пуччини - Богема / Giacomo Puccini - La Boheme
Год выпуска: 2008
Лейбл: Axiom film, MR Filmproduktion, Unitel
Страна-производитель: Австрия, Германия
Жанр: Film-opera
Продолжительность: 01:49:12
Язык: Итальянский
Субтитры: Русские
Режиссер: Robert Dornhelm (Роберт Дорнхельм)
Дирижер: Bertrand de Billy (Бертран де Бийи)
Исполнители:
Anna Netrebko (Анна Нетребко) - Мими;
Rolando Villazon (Роландо Вильясон) - Рудольф, поэт;
George Von Bergen (Георг фон Берген), голос: Boaz Daniel (Боаз Даниэль) - Марсель, художник;
Adrian Erod (Эдриан Эрод), голос: Stephane Degout (Стефан Дегу) - Шонар, музыкант;
Vitaliy Kovalev (Виталий Ковалёв) - Коллен, философ;
Tiziano Bracci (Тициано Браччи) - Бенуа, домохозяин;
Ioan Holender (Иоан Холендер), голос: Tiziano Bracci (Тициано Браччи) - Альциндор, государственный советник;
Nicole Cabell (Николь Кэбелл) - Мюзетта;
Ernst-Dieter Suttheimer (Эрнст-Дитер Суттхаймер), голос: Kevin Connors (Кевин Коннорс) - Парпиньоль;
Konrad Huber (Конрад Хубер), голос: Tiziano Bracci (Тициано Браччи) - таможенный сержант.
Chorus of the Bayericher Rundfunk (хор Баварского радио), Children's chorus of the Staatstheatre am Gartnplatz (детский хор), Munich, Bavarian Radio Symphony Orchestra (симфонический оркестр Баварского радио)
Описание: В Мими, скромную девушку, занимающуюся вышиванием по шёлку, влюбляется бедный поэт Рудольф. Отсутствие денег делает невозможной их совместную жизнь, а чахотка — существование самой Мими.

MediaInfo

Общее
Уникальный идентификатор : 184569999685173774785004061799818451536 (0x8ADAE39073DE2B0A8FF3C8BB2DB7DA50)
Полное имя : W:\Torrent_4\Пуччини - Богема (2008) (opera-film, BDRip 720p, AC3 5.1).mkv
Формат : Matroska
Версия формата : Version 4 / Version 2
Размер файла : 5,17 Гбайт
Продолжительность : 1 ч. 49 м.
Режим общего битрейта : Переменный
Общий поток : 6774 Кбит/сек
Дата кодирования : UTC 2015-02-14 15:06:54
Программа кодирования : mkvmerge v7.6.0 ('Garden of Dreams') 64bit built on Feb 8 2015 13:04:34
Библиотека кодирования : libebml v1.3.1 + libmatroska v1.4.2
_STATISTICS_WRITING_APP : mkvmerge v7.6.0 ('Garden of Dreams') 64bit built on Feb 8 2015 13:04:34
_STATISTICS_WRITING_DATE_UTC : 2015-02-14 15:06:54
_STATISTICS_TAGS : BPS DURATION NUMBER_OF_FRAMES NUMBER_OF_BYTES
DURATION : 01:43:36.120000000
NUMBER_OF_FRAMES : 1712
NUMBER_OF_BYTES : 3054324
Видео
Идентификатор : 1
Формат : AVC
Формат/Информация : Advanced Video Codec
Профиль формата : Main@L4.1
Параметр CABAC формата : Да
Параметр ReFrames формата : 3 кадра
Идентификатор кодека : V_MPEG4/ISO/AVC
Продолжительность : 1 ч. 49 м.
Вид битрейта : Переменный
Битрейт : 5967 Кбит/сек
Максимальный битрейт : 8000 Кбит/сек
Ширина : 1280 пикселей
Высота : 720 пикселей
Соотношение сторон : 16:9
Режим частоты кадров : Постоянный
Частота кадров : 25,000 кадров/сек
Стандарт вещания : PAL
Цветовое пространство : YUV
Субдискретизация насыщенности : 4:2:0
Битовая глубина : 8 бит
Тип развёртки : Прогрессивная
Бит/(Пиксели*Кадры) : 0.259
Размер потока : 4,55 Гбайт (88%)
Язык : English
Default : Да
Forced : Нет
colour_range : Limited
Аудио #1
Идентификатор : 2
Формат : AC-3
Формат/Информация : Audio Coding 3
Расширение режима : CM (complete main)
Параметр Endianness формата : Big
Идентификатор кодека : A_AC3
Продолжительность : 1 ч. 49 м.
Вид битрейта : Постоянный
Битрейт : 448 Кбит/сек
Каналы : 6 каналов
Расположение каналов : Front: L C R, Side: L R, LFE
Частота : 48,0 КГц
Битовая глубина : 16 бит
Метод сжатия : С потерями
Размер потока : 350 Мбайт (7%)
Заголовок : AC3 5.1
Язык : Italian
Default : Да
Forced : Нет
Аудио #2
Идентификатор : 3
Формат : AC-3
Формат/Информация : Audio Coding 3
Расширение режима : CM (complete main)
Параметр Endianness формата : Big
Идентификатор кодека : A_AC3
Продолжительность : 1 ч. 49 м.
Вид битрейта : Постоянный
Битрейт : 224 Кбит/сек
Каналы : 2 канала
Расположение каналов : Front: L R
Частота : 48,0 КГц
Битовая глубина : 16 бит
Метод сжатия : С потерями
Размер потока : 175 Мбайт (3%)
Заголовок : AC3 2.0
Язык : Russian
Default : Нет
Forced : Нет
Текст
Идентификатор : 4
Формат : PGS
Режим смешивания : zlib
Идентификатор кодека : S_HDMV/PGS
Идентификатор кодека/Информация : The same subtitle format used on BDs/HD-DVDs
Заголовок : Субтитры русские
Язык : Russian
Default : Да
Forced : Нет
Качество видео: BDRip
Формат/Контейнер: MKV
Видео кодек: H.264
Аудио кодек: AC3
Видео поток: H.264, 1280x720, 6174 kbps, 29.970 fps
Аудио поток: AC3, 224 kbps, 48 kHz, 2 ch. AC3, 448 kbps, 48 kHz, 6 ch

Скриншоты





Показать сообщения:    

Текущее время: 08-Дек 08:56

Часовой пояс: UTC + 3


Вы не можете начинать темы
Вы не можете отвечать на сообщения
Вы не можете редактировать свои сообщения
Вы не можете удалять свои сообщения
Вы не можете голосовать в опросах
Вы не можете прикреплять файлы к сообщениям
Вы не можете скачивать файлы