Георг Фридрих Гендель - Теодора (Глайндборнский фестиваль; Питер Селларс, Уильям Кристи) / George Frideric Handel - Theodora (Glyndebourne festival; Peter Sellars, William Christie) [1996, Opera, BDRip 720p]


 

[Цитировать]

Георг Фридрих Гендель - Теодора / George Frideric Handel - Theodora
Год выпуска: 1996
Лейбл: Kultur, Warner Classics
Страна-производитель: США
Жанр: Opera
Продолжительность: 03:27:47
Язык: Английский
Режиссер: Peter Sellars (Питер Селларс)
Дирижер: William Christie (Уильям Кристи)
Исполнители:
Dawn Upshaw (Дон Апшоу) - Theodora,
David Daniels (Дэвид Дэниэлс) - Didymus,
Frode Olsen (Фроде Ольсен) - Valens,
Richard Croft (Ричард Крофт) - Septimius,
Lorraine Hunt (Лоррейн Хант Либерсон) - Irene
Orchestra of the Age of Enlightenment (Оркестр "Век Просвещения")
Описание: Теодора - одна из христианских мучениц, которая отдала свою жизнь за веру, жила в Антиохии (оккупированная римлянами Сирия) в 304 году в период правления римского императора Диоклетиана.
Валенс - римский наместник - объявляет указ о том, что все жители Антиохии должны поклоняться римским богам в день рождения императора, в противном случае всем неповиновавшимся грозит смерть. Дидимус - римский офицер - протестует, потому что считает, что веру в бога нельзя навязать силой закона. Его начальник Септимиус сочувствует ему, но говорит, что римские законы, хоть и они и суровы, должны беспрекословно исполняться.
На собрании христиан Теодора и Ирина отвергают мирскую суету и тщеславие. Они также отказываются повиноваться жестокому указу наместника, и Септимиус приказывает арестовать Теодору. Ее отправляют в храм Венеры - там она должна отказаться от христианства - а Дидимус дает клятву освободить ее.
Дидимус признается Септимиусу, что Теодора обратила его в христианство и что он любит Теодору. Дидимусу удается пробраться в темницу к Теодоре. Там влюбленные меняются одеждами, чтобы под видом римского офицера девушка могла покинуть свою тюрьму.
Теодора неожиданно появляется на собрании христиан, и в это время гонец приносит печальную весть: Дидимус должен умереть. Теодора отправляется в суд в надежде спасти любимого. Теодора готова идти на смерть ради жизни Дидимуса, а Дидимус готов умереть, чтобы спасти Теодору. Римляне ошеломлены и обеспокоены. Но Валенс выносит окончательный вердикт: "Раз оба признали свою вину - оба должны за это заплатить". Теодору и Дидимуса приговаривают к смертной казни. Они мужественно идут навстречу смерти, а хор возносит молитву об их спасении.
Новую версию оратории Генделя "Теодора" представил на оперном фестивале в Глайндборне экстравагантный американский режиссер Питер Селларс (Peter Sellars): он перенес действие оратории из захваченной врагами Антиохии в современную Америку, превратив сочинение Генделя в актуальную притчу о духовном сопротивлении тирании и гонениям.

Оригинальное описание

For his 1996 Glyndebourne staging, radical American director Peter Sellars takes George Frideric Handel's penultimate English oratorio - a tale of self-sacrificial love between a Christian virgin and a Roman imperial bodyguard in fourth-century, enemy-occupied Antioch - and, by resetting it in modern-day America, transforms it into a timeless parable of spiritual resistance to tyranny and persecution.
Качество видео: BDRip - Скачать BluRay (43,75 GB)
Формат/Контейнер: MKV
Видео кодек: H.264
Аудио кодек: AC3
Видео поток: MPEG-4 AVC, 1280x720, 6151 kbps, 29.970 fps
Аудио поток: AC3, 224 kbps, 48 kHz, 2 ch

MediaInfo

Общее
Уникальный идентификатор : 212643032742350504640570907047515416396 (0x9FF98EF4C4E702BEB0B821B0A9EC674C)
Полное имя : V:\Torrent_3\Гендель - Теодора (Glyndebourne festival) (1996) (BDRip 720p, AVC, AC3 2.0).mkv
Формат : Matroska
Версия формата : Version 4 / Version 2
Размер файла : 8,93 Гбайт
Продолжительность : 3 ч. 27 м.
Режим общего битрейта : Переменный
Общий поток : 6151 Кбит/сек
Дата кодирования : UTC 2015-01-28 15:42:26
Программа кодирования : mkvmerge v7.3.0 ('Nouages') 64bit built on Oct 22 2014 18:53:34
Библиотека кодирования : libebml v1.3.0 + libmatroska v1.4.1
DURATION : 03:27:50.752000000
NUMBER_OF_FRAMES : 389711
NUMBER_OF_BYTES : 349181056
_STATISTICS_WRITING_APP : mkvmerge v7.3.0 ('Nouages') 64bit built on Oct 22 2014 18:53:34
_STATISTICS_WRITING_DATE_UTC : 2015-01-28 15:42:26
_STATISTICS_TAGS : BPS DURATION NUMBER_OF_FRAMES NUMBER_OF_BYTES
Видео
Идентификатор : 1
Формат : AVC
Формат/Информация : Advanced Video Codec
Профиль формата : Main@L4.1
Параметр CABAC формата : Да
Параметр ReFrames формата : 3 кадра
Идентификатор кодека : V_MPEG4/ISO/AVC
Продолжительность : 3 ч. 27 м.
Вид битрейта : Переменный
Битрейт : 5805 Кбит/сек
Максимальный битрейт : 7000 Кбит/сек
Ширина : 1280 пикселей
Высота : 720 пикселей
Соотношение сторон : 16:9
Режим частоты кадров : Постоянный
Частота кадров : 29,970 кадров/сек
Стандарт вещания : NTSC
Цветовое пространство : YUV
Субдискретизация насыщенности : 4:2:0
Битовая глубина : 8 бит
Тип развёртки : Прогрессивная
Бит/(Пиксели*Кадры) : 0.210
Размер потока : 8,43 Гбайт (94%)
Язык : English
Default : Да
Forced : Нет
colour_range : Limited
Аудио
Идентификатор : 2
Формат : AC-3
Формат/Информация : Audio Coding 3
Расширение режима : CM (complete main)
Параметр Endianness формата : Big
Идентификатор кодека : A_AC3
Продолжительность : 3 ч. 27 м.
Вид битрейта : Постоянный
Битрейт : 224 Кбит/сек
Каналы : 2 канала
Расположение каналов : Front: L R
Частота : 48,0 КГц
Битовая глубина : 16 бит
Метод сжатия : С потерями
Размер потока : 333 Мбайт (4%)
Default : Да
Forced : Нет

Скриншоты


В конце файл оказался не полным: обрыв на представлении дирижера и оркестра, нет титров. Прошу прощение. Пробовал переделать: или программы вылетали, или не кодировали.
Буду благодарен, если кто-то поможет разобраться, в чем проблема в исходнике.



Показать сообщения:    

Текущее время: 10-Дек 02:09

Часовой пояс: UTC + 3


Вы не можете начинать темы
Вы не можете отвечать на сообщения
Вы не можете редактировать свои сообщения
Вы не можете удалять свои сообщения
Вы не можете голосовать в опросах
Вы не можете прикреплять файлы к сообщениям
Вы не можете скачивать файлы