Annette Dasch: Die Gretchenfrage | The Crucial Question [2011, Opera, Romantic, Classical, Blu-ray]


 

[Цитировать]

Annette Dasch: Die Gretchenfrage | The Crucial Question
Год выпуска: 2011
Страна-производитель: США
Жанр: Opera, Romantic, Classical
Продолжительность: 01:31:04
Язык: Italian
Перевод: отсувствует
Субтитры: English French German
Режиссер/Хореограф: Michael Beyer
Исполнители: Annette Dasch (soprano), Munich Radio Orchestra
Описание: Annette Dasch started her brilliant career as a winner of prestigious international singing competitions and is nowadays one of the most-sought-after singers. She is also noted for developing her own musical programmes. The star soprano gave an exceptional concert in 2011: taking as her theme “The crucial question”, Annette Dasch dedicated the programme to mythical female characters in desperate crisis situations, with works by Schubert, Verdi, Schumann, Berlioz and Gounod. Including “That is why music is the most important thing”, a portrait by Annette Schreier. The portrait follows Annette Dasch in her special season 2010/11 – with important debuts and changes in her privat life – in her time in Bayreuth, Geneva, Munich and Berlin, during rehearsals, in performances, and in preparations for her show “Annettes DaschSalon”.
Качество видео: Blu-ray
Формат/Контейнер: BDMV
Видео кодек: MPEG4
Аудио кодек: DTS
Видео поток: MPEG-4 AVC Video 29948 kbps 1080i / 29.970 fps / 16:9 / High Profile 4.1
Аудио поток: LPCM Audio Undetermined 2304 kbps 2.0 / 48 kHz / 2304 kbps / 24-bit
Аудио поток 2: DTS-HD Master Audio Undetermined 3724 kbps 5.0 / 48 kHz / 3724 kbps / 24-bit (DTS Core: 5.0 / 48 kHz / 1509 kbps / 24-bit)

BDInfo

DISC INFO:
Disc Title: DIE GRETCHENFRAGE
Disc Size: 35,996,252,887 bytes
Protection: AACS
BD-Java: No
BDInfo: 0.5.8
PLAYLIST REPORT:
Name: 00000.MPLS
Length: 1:31:04.358 (h:m:s.ms)
Size: 25,918,740,480 bytes
Total Bitrate: 37.95 Mbps
VIDEO:
Codec Bitrate Description
----- ------- -----------
MPEG-4 AVC Video 29948 kbps 1080i / 29.970 fps / 16:9 / High Profile 4.1
AUDIO:
Codec Language Bitrate Description
----- -------- ------- -----------
LPCM Audio Undetermined 2304 kbps 2.0 / 48 kHz / 2304 kbps / 24-bit
DTS-HD Master Audio Undetermined 3724 kbps 5.0 / 48 kHz / 3724 kbps / 24-bit (DTS Core: 5.0 / 48 kHz / 1509 kbps / 24-bit)
SUBTITLES:
Codec Language Bitrate Description
----- -------- ------- -----------
Presentation Graphics English 12.636 kbps
Presentation Graphics German 9.441 kbps
Presentation Graphics French 13.042 kbps
FILES:
Name Time In Length Size Total Bitrate
---- ------- ------ ---- -------------
00000.M2TS 0:00:00.000 1:30:55.983 25,916,633,088 38,001
00008.M2TS 1:30:55.983 0:00:08.041 2,095,104 2,084
00007.M2TS 1:31:04.025 0:00:00.333 12,288 295

Скриншоты




Показать сообщения:    

Текущее время: 06-Дек 17:03

Часовой пояс: UTC + 3


Вы не можете начинать темы
Вы не можете отвечать на сообщения
Вы не можете редактировать свои сообщения
Вы не можете удалять свои сообщения
Вы не можете голосовать в опросах
Вы не можете прикреплять файлы к сообщениям
Вы не можете скачивать файлы