Модест Мусоргский - Борис Годунов (Мариинский театр, Graham Vick, Гергиев, Никитин, Акимов, Кит, Семишкур, Попов, Марков, Тановицкий) [2012, Opera, Sat stream 1080i]


 

[Цитировать]

Модест Мусоргский - Борис Годунов
(Мариинский театр, 2012)

Год выпуска: 2012
Страна-производитель: Франция
Жанр: Opera
Продолжительность: 02:22:38
Язык: Русский
Субтитры: French hardsubs
Режиссер/Хореограф: постановщик Graham Vick, дирижер Валерий Гергиев
Исполнители: Евгений Никитин (Борис Годунов)
Евгений Акимов (Шуйский)
Михаил Кит (Пимен)
Сергей Семишкур (Григорий)
Андрей Попов (Юродивый)
Алексей Марков (Андрей Щелкалов)
Алексей Тановицкий (Варлаам)
Треклист: Опера в семи картинах (версия 1869 года).
Описание: Постановка на сцене Мариинского театра, СПб в рамках 20-го фестиваля "Белые ночи". Запись по трансляции Mezzo Live HD.
Качество видео: Sat stream
Формат/Контейнер: TS
Видео кодек: H.264
Аудио кодек: MP2
Видео поток: 1920x1080i, 8226 Kbps, 25 fps
Аудио поток: MP2, 192 kbps, 48 kHz, 2.0

MediaInfo

General
ID : 1 (0x1)
Format : MPEG-TS
File size : 8.83 GiB
Duration : 2h 22mn
Overall bit rate mode : Variable
Overall bit rate : 8 858 Kbps
Video
ID : 1604 (0x644)
Menu ID : 1 (0x1)
Format : AVC
Format/Info : Advanced Video Codec
Format profile : High@L4.0
Format settings, CABAC : Yes
Format settings, ReFrames : 3 frames
Codec ID : 27
Duration : 2h 22mn
Bit rate : 8 226 Kbps
Width : 1 920 pixels
Height : 1 080 pixels
Display aspect ratio : 16:9
Frame rate : 25.000 fps
Standard : Component
Color space : YUV
Chroma subsampling : 4:2:0
Bit depth : 8 bits
Scan type : Interlaced
Scan order : Top Field First
Bits/(Pixel*Frame) : 0.159
Stream size : 8.20 GiB (93%)
Color primaries : BT.709
Transfer characteristics : BT.709
Matrix coefficients : BT.709
Audio
ID : 2604 (0xA2C)
Menu ID : 1 (0x1)
Format : MPEG Audio
Format version : Version 1
Format profile : Layer 2
Codec ID : 3
Duration : 2h 22mn
Bit rate mode : Constant
Bit rate : 192 Kbps
Channel(s) : 2 channels
Sampling rate : 48.0 KHz
Compression mode : Lossy
Stream size : 196 MiB (2%)



Показать сообщения:    

Текущее время: 05-Дек 03:30

Часовой пояс: UTC + 3


Вы не можете начинать темы
Вы не можете отвечать на сообщения
Вы не можете редактировать свои сообщения
Вы не можете удалять свои сообщения
Вы не можете голосовать в опросах
Вы не можете прикреплять файлы к сообщениям
Вы не можете скачивать файлы