Джузеппе Верди - Отелло (Дворец дожей в Венеции; реж. Франческо Микели; дир. Мюнг-Вун Чунг) / Giuseppe Verdi - Otello (the Palazzo Ducale di Venezia; Francesco Micheli; Myung-Whun Chung) [2013, Opera, Blu-ray 1080i]


 

[Цитировать]

Джузеппе Верди - Отелло / Giuseppe Verdi - Otello
Год выпуска: 2013
Лейбл: C MAJOR, Unitel Classica
Страна-производитель: США
Жанр: Opera
Продолжительность: 02:28:43
Язык: Итальянский
Субтитры: Английские, французские, немецкие, итальянские, испанские, китайские, японские, корейские
Режиссер: Francesco Micheli (Франческо Микели)
Дирижер: Myung-Whun Chung (Мюнг-Вун Чунг)
Исполнители:
Gregory Kunde (Грегори Кунде) - Otello,
Carmela Remigio (Кармела Ремиджо) - Desdemona,
Lucio Gallo (Лучо Галло) - Jago,
Elisabetta Martorana (Элизабетта Марторана) - Emilia,
Francesco Marsiglia (Франческо Марсилия) - Cassio,
Antonello Ceron (Антонелло Черон) - Roderigo,
Mattia Denti (Маттиа Денти) - Lodovico,
Matteo Ferrara (Маттео Феррари) - Montano,
Antonio Casagrande (Антонио Касагранде) - Un Araldo
Teatro la Fenice Chorus and Orchestra (хор и оркестр театра «Ла Фениче»)
Описание: «Отелло», последняя трагическая опера Верди, основанная на шекспировской драме о мести и ревности, покоряет зрителей на протяжении столетий. Композитор написал оперу после двадцатилетней творческой паузы и смерти своего главного музыкального «оппонента» Рихарда Вагнера.
На Кипр, преодолевая шторм, после победы над турками возвращается флот, возглавляемый мавританским главнокомандующим Отелло. Только порочный Яго не рад этому: он хочет уничтожить Отелло и убеждает последнего, что Дездемона, его молодая жена, изменяет ему с Кассио, получившим повышение, к которому стремился сам Яго. Отелло сходит с ума от ревности. Испуганная и невинная Дездемона напрасно пытается оправдаться. Предательство Яго достигает конечного результата: Отелло душит свою жену в спальне. Охваченная ужасом жена Яго (и горничная Дездемоны) Эмилия открывает всем правду. Яго спасается бегством, но Отелло, потрясенный собственными поступками, закалывает себя и, умирая, в последний раз целует чистую Дездемону.

Оригинальное описание

Rarely has a production of Verdi’s Otello been staged in such a prestigious location: the courtyard of the Palazzo Ducale in Venice! This special outdoor “event production” of the Teatro La Fenice takes place amidst genuine late-Gothic and Renaissance architecture highlighted by spectacular projections: “A set of singular fascination” (Il Corriere Musicale).
Critics were full of praise for the musical performance, designating conductor Myung-Whun Chung as the “absolutely dominating force” of the performance (GB Opera). The lead role is sung by Gregory Kunde, who successfully interpreted both Verdi’s and Rossini’s Otello in one year, perhaps the first tenor ever to do so. He “reproduces every accent, every colour demanded by Verdi with sensibility and intelligence”.
Recorded from the Palazzo Ducale di Venezia, 2013.
Либретто
Бонусы: Анонсы опер
Качество видео: Blu-ray
Формат/Контейнер: BDMV
Видео кодек: MPEG4
Аудио кодек: LPCM, DTS
Видео поток: MPEG-4 Video, 1920x1080, 29947 kbps, 29.970 fps
Аудио поток: LPCM, 2304 kbps, 48 kHz, 2 ch. DTS-HD MA, 3283 kbps, 48 kHz, 6 ch

BD-Info

DISC INFO:
Disc Title: Верди - Отелло (Palazzo Ducale di Venezia) (2013) (Blu-ray 1080i, AVC, DTS-HD 5.1)
Disc Size: 43,746,857,831 bytes
Protection: AACS
BD-Java: No
BDInfo: 0.5.8
PLAYLIST REPORT:
Name: 00001.MPLS
Length: 2:28:43.914 (h:m:s.ms)
Size: 41,954,156,544 bytes
Total Bitrate: 37.61 Mbps
VIDEO:
Codec Bitrate Description
----- ------- -----------
MPEG-4 AVC Video 29947 kbps 1080i / 29.970 fps / 16:9 / High Profile 4.1
AUDIO:
Codec Language Bitrate Description
----- -------- ------- -----------
LPCM Audio Italian 2304 kbps 2.0 / 48 kHz / 2304 kbps / 24-bit
DTS-HD Master Audio Italian 3283 kbps 5.1 / 48 kHz / 3283 kbps / 24-bit (DTS Core: 5.1 / 48 kHz / 1509 kbps / 24-bit)
SUBTITLES:
Codec Language Bitrate Description
----- -------- ------- -----------
Presentation Graphics Italian 18.206 kbps
Presentation Graphics English 20.839 kbps
Presentation Graphics German 22.106 kbps
Presentation Graphics French 19.770 kbps
Presentation Graphics Spanish 20.269 kbps
Presentation Graphics Chinese 14.835 kbps
Presentation Graphics Korean 17.711 kbps
Presentation Graphics Japanese 14.702 kbps
FILES:
Name Time In Length Size Total Bitrate
---- ------- ------ ---- -------------
00001.M2TS 0:00:00.000 2:28:25.796 41,944,516,608 37,678
00010.M2TS 2:28:25.796 0:00:03.036 1,603,584 4,225
00000.M2TS 2:28:28.833 0:00:09.042 4,823,040 4,267
00005.M2TS 2:28:37.875 0:00:06.039 3,213,312 4,256
Семпл

Скриншоты


Скриншоты доп. материалов





Показать сообщения:    

Текущее время: 05-Дек 15:27

Часовой пояс: UTC + 3


Вы не можете начинать темы
Вы не можете отвечать на сообщения
Вы не можете редактировать свои сообщения
Вы не можете удалять свои сообщения
Вы не можете голосовать в опросах
Вы не можете прикреплять файлы к сообщениям
Вы не можете скачивать файлы