Рихард Штраус - Саломея (Дворец фестивалей Баден-Бадена; Николас Ленов, Томас Грим, Штефан Шолтес) / Richard Strauss - Salome (Festspielhaus Baden-Baden; Nikolaus Lehnhoff, Thomas Grimm, Stefan Soltesz) [2011, Opera, Blu-ray]


 

[Цитировать]

Рихард Штраус - Саломея / Richard Strauss - Salome
Год выпуска: 2011
Лейбл: Arthaus Musik, Unitel Classica
Страна-производитель: США
Жанр: Opera
Продолжительность: 01:42:07
Язык: Английский
Субтитры: Английские, французские, немецкие, испанские, итальянские, японские, корейские
Режиссер: Nikolaus Lehnhoff (Николас Ленов), Thomas Grimm (Томас Грим)
Дирижер: Stefan Soltesz (Штефан Шолтес)
Исполнители:
Angela Denoke (Ангела Деноке) - Salome,
Kim Begley (Ким Бегли) - Herodes,
Doris Soffel (Дорис Соффел) - Herodias,
Alan Held (Алан Хелд) - Jochanaan,
Marcel Reijans (Марсел Рейанс) - Narraboth
Berlin Deutsches Symphony Orchestra (Немецкий симфонический оркестр Берлина)
Описание: Музыкальная драма в одном действии Рихарда Штрауса на либретто по драме Оскара Уайльда, переведенное на немецкий язык (с некоторыми купюрами) Гедвигом Лахманном.
Постановка «Саломеи» явилась крупным событием в истории немецкой и мировой оперы. Произведение это, объявленное певцами неисполнимым и безнравственным (первая исполнительница главной роли, артистка М. Виттих, вначале заявила: «Я не буду этого петь, я порядочная женщина»), вызвавшее резко противоположные оценки критики, впоследствии завоевало успех и утвердилось в репертуаре.
Первое исполнение: Дрезден, Придворная опера, 9 декабря 1905 года под управлением Э. фон Шуха.

Оригинальное описание

This highly acclaimed production of Strauss’ “Salome” from the Festspielhaus Baden-Baden is staged by German director Nikolaus Lenhoff. Starring Angela Denoke as “a brilliant Salome” (FAZ), who is joined by a great ensemble of soloists, Kim Begley, Doris Soffel and Alan Held. Performing with “great aplomb” (FAZ), the Deutsches Sinfonie Orchester Berlin, conducted by Stefan Soltez, was also enthusiastically celebrated by critics and audience.
Recorded live from the Festspielhaus Baden-Baden, 2011.
Бонус: анонсы опер
Об опере
Качество видео: Blu-ray
Формат/Контейнер: BDMV
Видео кодек: MPEG4
Аудио кодек: LPCM, DTS
Видео поток: MPEG-4 Video, 1920x1080, 18451 kbps, 29.970 fps
Аудио поток: LPCM, 2304 kbps, 48 kHz, 2 ch. DTS-HD MA, 3753 kbps, 48 kHz, 5 ch

BD-Info

DISC INFO:
Disc Title: Штраус Рихард - Саломея (Festspielhaus Baden-Baden) (2011) (Blu-ray 1080i, AVC, DTS-HD 5.0)
Disc Size: 22 066 976 596 bytes
Protection: AACS
BD-Java: No
BDInfo: 0.5.8
PLAYLIST REPORT:
Name: 00009.MPLS
Length: 1:42:07.488 (h:m:s.ms)
Size: 19 986 272 256 bytes
Total Bitrate: 26,09 Mbps
VIDEO:
Codec Bitrate Description
----- ------- -----------
MPEG-4 AVC Video 18451 kbps 1080i / 29,970 fps / 16:9 / High Profile 4.1
AUDIO:
Codec Language Bitrate Description
----- -------- ------- -----------
LPCM Audio Undetermined 2304 kbps 2.0 / 48 kHz / 2304 kbps / 24-bit
DTS-HD Master Audio Undetermined 3753 kbps 5.0 / 48 kHz / 3753 kbps / 24-bit (DTS Core: 5.0 / 48 kHz / 1509 kbps / 24-bit)
SUBTITLES:
Codec Language Bitrate Description
----- -------- ------- -----------
Presentation Graphics German 22,552 kbps
Presentation Graphics English 18,783 kbps
Presentation Graphics French 19,325 kbps
Presentation Graphics Spanish 19,512 kbps
Presentation Graphics Italian 19,735 kbps
Presentation Graphics Japanese 21,654 kbps
Presentation Graphics Korean 18,643 kbps
FILES:
Name Time In Length Size Total Bitrate
---- ------- ------ ---- -------------
00001.M2TS 0:00:00.000 1:41:53.107 19 985 147 904 26 154
00005.M2TS 1:41:53.107 0:00:14.047 1 112 064 633
00000.M2TS 1:42:07.154 0:00:00.333 12 288 295
Семпл

Скриншоты


Скриншоты бонусов





Показать сообщения:    

Текущее время: 22-Янв 04:44

Часовой пояс: UTC + 3


Вы не можете начинать темы
Вы не можете отвечать на сообщения
Вы не можете редактировать свои сообщения
Вы не можете удалять свои сообщения
Вы не можете голосовать в опросах
Вы не можете прикреплять файлы к сообщениям
Вы не можете скачивать файлы