Bela Bartok - Le Chateau de Barbe-Bleue / Барток - Замок Синей Бороды (Gustav Kuhn, Willard White, Beatrice Uria-Monzon, Opera Garnier) [2007, Opera, Sat stream 1080i] Mezzo HD


 

[Цитировать]

Bela Bartok - Le Chateau de Barbe-Bleue / Барток - Замок Синей Бороды (Opera Garnier)
Год выпуска: 2007
Страна-производитель: Франция, Opera Garnier
Жанр: Opera
Продолжительность: 01:05:11
Язык: Венгерский
Субтитры: French hardsubs
Режиссер/Хореограф: Direction musicale Gustav Kuhn
Исполнители: Willard White (Barbe-Bleue), Beatrice Uria-Monzon (Judith), Orchestre de l'Opera national de Paris
Треклист: Одноактная лирическая драма.
Описание: Постановка Alex Olle и Carlos Padrissa.
ВНИМАНИЕ! Торрент обновлен 30 июля 2014 - файл заменен на новый (качественная запись повтора трансляции без каких-либо сбоев и выпадений).
Пожалуйста, перекачайте и оставайтесь на раздаче.
Было: Запись с эфира Mezzo Live HD 22 августа 2013 г., присутствуют значительные артефакты и неустранимые выпадения сигнала. Продолжительность оригинальной трансляции 1.05.11.17. Продолжительность записанного в файл потока 01:04:45:15. Релиз предназначен для тех, кто желает посмотреть/послушать именно эту версию. Размер файла 4,34 ГБ.
СТАЛО: Запись с эфира Mezzo Live HD 2 июня 2014 г. Размер файла 5,67 ГБ.

MediaInfo

General
ID : 1 (0x1)
Format : MPEG-TS
File size : 5.67 GiB
Duration : 1h 5mn
Overall bit rate mode : Variable
Overall bit rate : 12.5 Mbps
Video
ID : 1604 (0x644)
Menu ID : 1 (0x1)
Format : AVC
Format/Info : Advanced Video Codec
Format profile : High@L4.0
Format settings, CABAC : Yes
Format settings, ReFrames : 3 frames
Codec ID : 27
Duration : 1h 5mn
Bit rate : 11.6 Mbps
Width : 1 920 pixels
Height : 1 080 pixels
Display aspect ratio : 16:9
Frame rate : 25.000 fps
Standard : Component
Color space : YUV
Chroma subsampling : 4:2:0
Bit depth : 8 bits
Scan type : Interlaced
Scan order : Top Field First
Bits/(Pixel*Frame) : 0.225
Stream size : 5.30 GiB (94%)
Color primaries : BT.709
Transfer characteristics : BT.709
Matrix coefficients : BT.709
Audio
ID : 2604 (0xA2C)
Menu ID : 1 (0x1)
Format : MPEG Audio
Format version : Version 1
Format profile : Layer 2
Codec ID : 3
Duration : 1h 5mn
Bit rate mode : Constant
Bit rate : 192 Kbps
Channel(s) : 2 channels
Sampling rate : 48.0 KHz
Compression mode : Lossy
Delay relative to video : -40ms
Stream size : 89.5 MiB (2%)
Качество видео: Sat stream
Формат/Контейнер: TS
Видео кодек: H.264
Аудио кодек: MP2
Видео поток: 1920x1080i, 11600 Kbps, 25 fps
Аудио поток: MP2, 192 kbps, 48 kHz, 2.0



Показать сообщения:    

Текущее время: 04-Дек 06:57

Часовой пояс: UTC + 3


Вы не можете начинать темы
Вы не можете отвечать на сообщения
Вы не можете редактировать свои сообщения
Вы не можете удалять свои сообщения
Вы не можете голосовать в опросах
Вы не можете прикреплять файлы к сообщениям
Вы не можете скачивать файлы