Гаэтано Доницетти - Дон Паскуале / Gaetano Donizetti - Don Pasquale (Tajo, Bruscantini, Valletti, Noni) cond. Alberto Erede [1955, Opera, DVD9]


 

[Цитировать]

Gaetano Donizetti - Гаэтано Доницетти
— DON PASQUALE —
____________________________________________________________________
Год записи: 1955
Лейбл: Hardy Classics / Bel canto
Страна-производитель: Italy
Жанр: Opera
Продолжительность: 105 min.
Язык: Italian
Субтитры: English, French, Italian
Дополнительно: Собственный рип
Исполнители:
Don Pasquale - Italo Tajo
Dottor Malatesta - Sesto Bruscantini
Ernesto - Cesare Valletti
Norina - Alda Noni
Un Notaro - Renato Ercolani
RAI Orchestra and Chorus
conductor - Alberto Erede
Описание:
A delightful performance of an operatic comic masterpiece.
Качество видео: DVD9
Формат/Контейнер: DVDVideo
Видео кодек: MPEG2
Аудио кодек: DTS, AC3
Видео поток: NTSC, B&W, 4:3, 720x480@540, 8000 Kbps, 29.970 fps
Аудио поток: DTS 755 Kbps 6ch; AC3 448 Kbps 6ch & mono
MI">

Скриншоты MI


General
Complete name : Donizetti - Don Pasquale (Erede-1955)\VIDEO_TS\VTS_01_1.VOB
Format : MPEG-PS
File size : 1 024 MiB
Duration : 14mn 36s
Overall bit rate : 9 802 Kbps
Video
ID : 224 (0xE0)
Format : MPEG Video
Format version : Version 2
Format profile : Main@Main
Format settings, BVOP : Yes
Format settings, Matrix : Default
Format settings, GOP : M=3, N=13
Duration : 14mn 36s
Bit rate : 8 000 Kbps
Width : 720 pixels
Height : 480 pixels
Display aspect ratio : 4:3
Frame rate : 29.970 fps
Standard : NTSC
Color space : YUV
Chroma subsampling : 4:2:0
Bit depth : 8 bits
Scan type : Interlaced
Scan order : Top Field First
Compression mode : Lossy
Bits/(Pixel*Frame) : 0.772
Time code of first frame : 09:59:59;10
Time code source : Group of pictures header
Stream size : 831 MiB (81%)
Color primaries : BT.601 NTSC
Transfer characteristics : BT.601
Matrix coefficients : BT.601
Audio #1
ID : 189 (0xBD)-128 (0x80)
Format : AC-3
Format/Info : Audio Coding 3
Mode extension : CM (complete main)
Format settings, Endianness : Big
Muxing mode : DVD-Video
Duration : 14mn 36s
Bit rate mode : Constant
Bit rate : 448 Kbps
Channel(s) : 6 channels
Channel positions : Front: L C R, Side: L R, LFE
Sampling rate : 48.0 KHz
Bit depth : 16 bits
Compression mode : Lossy
Stream size : 46.8 MiB (5%)
Audio #2
ID : 189 (0xBD)-129 (0x81)
Format : AC-3
Format/Info : Audio Coding 3
Mode extension : CM (complete main)
Format settings, Endianness : Big
Muxing mode : DVD-Video
Duration : 14mn 36s
Bit rate mode : Constant
Bit rate : 448 Kbps
Channel(s) : 1 channel
Channel positions : Front: C
Sampling rate : 48.0 KHz
Bit depth : 16 bits
Compression mode : Lossy
Stream size : 46.8 MiB (5%)
Audio #3
ID : 189 (0xBD)-138 (0x8A)
Format : DTS
Format/Info : Digital Theater Systems
Mode : 16
Format settings, Endianness : Big
Muxing mode : DVD-Video
Duration : 14mn 36s
Bit rate mode : Constant
Bit rate : 755 Kbps
Channel(s) : 6 channels
Channel positions : Front: L C R, Side: L R, LFE
Sampling rate : 48.0 KHz
Bit depth : 24 bits
Compression mode : Lossy
Stream size : 78.8 MiB (8%)
Text #1
ID : 189 (0xBD)-32 (0x20)
Format : RLE
Format/Info : Run-length encoding
Muxing mode : DVD-Video
Text #2
ID : 189 (0xBD)-33 (0x21)
Format : RLE
Format/Info : Run-length encoding
Muxing mode : DVD-Video
Text #3
ID : 189 (0xBD)-34 (0x22)
Format : RLE
Format/Info : Run-length encoding
Muxing mode : DVD-Video
Text #4
ID : 189 (0xBD)-35 (0x23)
Format : RLE
Format/Info : Run-length encoding
Muxing mode : DVD-Video
Text #5
ID : 189 (0xBD)-36 (0x24)
Format : RLE
Format/Info : Run-length encoding
Muxing mode : DVD-Video
Menu



Показать сообщения:    

Текущее время: 02-Дек 21:08

Часовой пояс: UTC + 3


Вы не можете начинать темы
Вы не можете отвечать на сообщения
Вы не можете редактировать свои сообщения
Вы не можете удалять свои сообщения
Вы не можете голосовать в опросах
Вы не можете прикреплять файлы к сообщениям
Вы не можете скачивать файлы