Россини - Кир в Вавилоне / Rossini - Ciro in Babilonia (Ewa Podles, Jessica Pratt, Michael Spyres, Mirco Palazzi) Уилл Кратчфилд / Will Crutchfield (David Livermore) [2012, Opera, HDTVRip-AVC][Русские субтитры (Elena-Rybka) + Eng, Fre, Ger. Sub\'


 

[Цитировать]

-33-й Оперный Фестиваль Россини в Пезаро представляет
Джоаккино Россини
»«КИР в ВАВИЛОНЕ»«
GIOACHINO Antonio ROSSINI
29 февраля (February 29,) 1792 — 13 ноября (November 13,) 1868
Либретто графа Франческо Авенти
по мотивам библейских источников
-- Год записи: 2012
Лейбл: UNITEL CLASSICA & RAI
Жанр: Opera
Продолжительность: 175 min.
Язык: Итальянский
Авторский перевод: Elena-Rybka
Субтитры/Subtitles: РУССКИЕ, English, French, German
в составе контейнера

•••
Качество видео: HDTVRip-AVC
♫ Sample ♫
Исходник: HDTVRip 1080i [Спасибо, svetlanka!]
Формат/Контейнер: MKV
Видео кодек: H.264
Аудио кодек: AC3
Видео поток: 1280x720, 5579 kbps , 25,000 fps.
Аудио поток: Итальянский, 384 kbps, 48,0 KHz, 2 ch
(оригинальный)
•••
Постановка: ДАВИД ЛАВЕРМОР
David Livermore
Костюмы: ДЖАНЛУКА ФАЛАЧИ
Gianluca Falaschi
Режиссёр видеозаписи: ДАНИЭЛЬ БИДЖИЕРО
Daniele Biggiero
-

Действующие лица и исполнители

Библейские времена...
•••
КИР, персидский царь - ЭВА ПОДЛЕЩ
Ciro - Ewa Podles
АМИРА, его жена - ДЖЕССИКА ПРАТТ
Amira - Jessica Pratt
ВАЛТАСАР, вавилонский царь - МАЙКЛ СПАЙЕРС
Baldassare - Michael Spyres
АРГЕНА, доверенное лицо Амиры - КАРМЕН РОМЕУ
Argene - Carmen Romeu
ДЗАМБРИ, вавилонский принц - МИРКО ПАЛАЦЦИ
Zambri - Mirco Palazzi
АРБАЧЕ, капитан армии Валтасара - РОБЕРТ МакФЕРСОН
Arbace - Robert McPherson
ДАНИИЛ, пророк - РАФАЭЛЕ КОНСТАНТИНИ
Daniello - Raffaele Costantini
•••
ХОР и ОРКЕСТР ТЕАТРА БОЛОНЬИ
Chorus and Orchestra of the Teatro Comunale, Bologna
Дирижёр: УИЛЛ КРАТЧФИЛД
Will Crutchfield
Хормейстер: ЛОРЕНЦО ФРАТИНИ
Lorenzo Fratini

Скриншоты


MediaInfo


-

x264 2nd pass log


avs [info]: 1280x720p 1:1 @ 25/1 fps (cfr)
x264 [info]: using SAR=1/1
x264 [info]: using cpu capabilities: MMX2 SSE2Fast SSEMisalign LZCNT
x264 [info]: profile High, level 4.1
x264 [info]: frame I:1502 Avg QP:16.69 size:116014
x264 [info]: frame P:67309 Avg QP:17.99 size: 56684
x264 [info]: frame B:193690 Avg QP:21.23 size: 17207
x264 [info]: consecutive B-frames: 1.5% 1.9% 5.7% 78.0% 7.3% 5.0% 0.3% 0.2%
x264 [info]: mb I I16..4: 3.3% 78.8% 18.0%
x264 [info]: mb P I16..4: 0.8% 14.2% 1.7% P16..4: 29.5% 36.0% 15.0% 0.0% 0.0% skip: 2.9%
x264 [info]: mb B I16..4: 0.1% 1.3% 0.2% B16..8: 27.5% 17.3% 3.1% direct:10.4% skip:40.2% L0:32.4% L1:42.8% BI:24.7%
x264 [info]: 8x8 transform intra:84.2% inter:50.8%
x264 [info]: coded y,uvDC,uvAC intra: 89.1% 89.9% 65.5% inter: 28.4% 28.4% 6.1%
x264 [info]: i16 v,h,dc,p: 46% 10% 7% 37%
x264 [info]: i8 v,h,dc,ddl,ddr,vr,hd,vl,hu: 12% 8% 11% 9% 11% 12% 11% 13% 14%
x264 [info]: i4 v,h,dc,ddl,ddr,vr,hd,vl,hu: 15% 8% 6% 8% 13% 14% 11% 12% 12%
x264 [info]: i8c dc,h,v,p: 41% 20% 22% 18%
x264 [info]: Weighted P-Frames: Y:4.3% UV:2.0%
x264 [info]: ref P L0: 50.8% 10.3% 19.3% 5.4% 4.8% 3.4% 3.4% 2.3% 0.2% 0.0%
x264 [info]: ref B L0: 88.2% 8.0% 1.7% 0.9% 0.6% 0.4% 0.3%
x264 [info]: ref B L1: 98.1% 1.9%
x264 [info]: kb/s:5579.05
x264 [total]: encoded 262501 frames, 2.03 fps, 5579.05 kb/s
-Общее
Уникальный идентификатор : 176969947094945294953490202271923119941 (0x85232C0A9881BFE2854FDD578E152745)
Полное имя : D:\Rossini - Ciro in Babilonia (Pesaro) 2012.mkv
Формат : Matroska
Версия формата : Version 4 / Version 2
Размер файла : 7,29 Гбайт
Продолжительность : 2 ч. 55 м.
Общий поток : 5965 Кбит/сек
Дата кодирования : UTC 2014-04-05 03:43:44
Программа кодирования : mkvmerge v6.6.0 ('The Edge Of The In Between') built on Dec 1 2013 17:55:00
Библиотека кодирования : libebml v1.3.0 + libmatroska v1.4.1
Видео
Идентификатор : 1
Формат : AVC
Формат/Информация : Advanced Video Codec
Профиль формата : High@L4.1
Параметр CABAC формата : Да
Параметр ReFrames формата : 8 кадров
Идентификатор кодека : V_MPEG4/ISO/AVC
Продолжительность : 2 ч. 55 м.
Битрейт : 5462 Кбит/сек
Ширина : 1280 пикселей
Высота : 720 пикселей
Соотношение сторон : 16:9
Частота кадров : 25,000 кадров/сек
Цветовое пространство : YUV
Субдискретизация насыщенности : 4:2:0
Битовая глубина : 8 бит
Тип развёртки : Прогрессивная
Бит/(Пиксели*Кадры) : 0.237
Размер потока : 6,68 Гбайт (92%)
Библиотека кодирования : x264 core 130 r2273 b3065e6
Настройки программы : cabac=1 / ref=8 / deblock=1:-3:-3 / analyse=0x3:0x113 / me=umh / subme=11 / psy=1 / psy_rd=1.05:0.15 / mixed_ref=1 / me_range=32 / chroma_me=1 / trellis=2 / 8x8dct=1 / cqm=0 / deadzone=21,11 / fast_pskip=1 / chroma_qp_offset=-3 / threads=3 / lookahead_threads=1 / sliced_threads=0 / nr=0 / decimate=1 / interlaced=0 / bluray_compat=0 / constrained_intra=0 / bframes=7 / b_pyramid=2 / b_adapt=2 / b_bias=0 / direct=1 / weightb=1 / open_gop=0 / weightp=2 / keyint=250 / keyint_min=25 / scenecut=40 / intra_refresh=0 / rc=crf / mbtree=0 / crf=18.0 / qcomp=0.65 / qpmin=0 / qpmax=69 / qpstep=4 / ip_ratio=1.40 / pb_ratio=1.30 / aq=1:0.90
Язык : English
Аудио
Идентификатор : 2
Формат : AC-3
Формат/Информация : Audio Coding 3
Расширение режима : CM (complete main)
Идентификатор кодека : A_AC3
Продолжительность : 2 ч. 55 м.
Вид битрейта : Постоянный
Битрейт : 384 Кбит/сек
Каналы : 2 канала
Расположение каналов : Front: L R
Частота : 48,0 КГц
Битовая глубина : 16 бит
Метод сжатия : С потерями
Размер потока : 481 Мбайт (6%)
Язык : Italian
Текст #1
Идентификатор : 3
Формат : ASS
Идентификатор кодека : S_TEXT/ASS
Идентификатор кодека/Информация : Advanced Sub Station Alpha
Метод сжатия : Без потерь
Язык : Russian
Текст #2
Идентификатор : 4
Формат : UTF-8
Идентификатор кодека : S_TEXT/UTF8
Идентификатор кодека/Информация : UTF-8 Plain Text
Язык : German
Текст #3
Идентификатор : 5
Формат : UTF-8
Идентификатор кодека : S_TEXT/UTF8
Идентификатор кодека/Информация : UTF-8 Plain Text
Язык : English
Текст #4
Идентификатор : 6
Формат : UTF-8
Идентификатор кодека : S_TEXT/UTF8
Идентификатор кодека/Информация : UTF-8 Plain Text
Язык : French
-



Показать сообщения:    

Текущее время: 03-Дек 14:39

Часовой пояс: UTC + 3


Вы не можете начинать темы
Вы не можете отвечать на сообщения
Вы не можете редактировать свои сообщения
Вы не можете удалять свои сообщения
Вы не можете голосовать в опросах
Вы не можете прикреплять файлы к сообщениям
Вы не можете скачивать файлы