Джузеппе Верди - Риголетто (Цюрихский оперный театр; Жильбер Дефло; Нелло Санти) / Giuseppe Verdi - Rigoletto (Zurich Opera House; Gilbert Deflo; Nello Santi) [2006, Opera, Blu-ray 1080i]


 

[Цитировать]

Джузеппе Верди - Риголетто (Цюрихский оперный театр; Жильбер Дефло; Нелло Санти) / Giuseppe Verdi - Rigoletto (Zurich Opera House; Gilbert Deflo; Nello Santi)
Год выпуска: 2006
Лейбл: Arthaus Musik, OpernHause Zurich
Страна-производитель: Швейцария
Жанр: Opera
Продолжительность: 02:08:04
Язык: Итальянский
Субтитры: Английские, итальянские, немецкие, французские, испанские
Режиссер: Gilbert Deflo (Жильбер Дефло)
Дирижер: Nello Santi (Нелло Санти)
Исполнители:
Piotr Beczala (Пётр Бечала) - Il duca di Mantova
Leo Nucci (Лео Нуччи) - Rigoletto
Elena Mosuc (Елена Мосук) - Gilda
Lazlo Polgar (Ласло Полгар) - Sparafucile
Katharina Peetz (Катерина Петц) - Maddalena
Kismara Pessatti (Кисмара Пессатти) - Giovanna
Rolf Haunstein (Ральф Хаунстейн) - Il Conte di Monterone
Valeriy Murga (Валерий Мурга) - Marullo
Boguslaw Bidzinski (Богуслав Бидзински) - Borsa
Morgan Moody (Морган Моуди) - Il Conte di Ceprano
Angela Kerrison (Анджела Керрисон) - La Contessa
Manuel Betancourt (Мануэль Бетанкур) - Usciere
Martina Welschenbach (Мартина Велшенбах) - Paggio della Duchessa
Zurich Opera House Chorus, Zurich Opera House Orchestra (хор и оркестр Цюрихского оперного театра)
Описание: Эта постановка Риголетто, снятая в Цюрихском Оперном театре в 2006 году, имеет три сильные составляющие, чтобы рекомендовать его. В главной роли Лео Нуччи полностью раскрывает все черты характера Риголетто и великолепно исполняет весь диапазон эмоций — остроумие горбуна, боязливость, и самоненависть. С Петром Бечала Цюрихская сцена получила одного из самых горячих лирических теноров нашего времени. Настоящая звезда, по степени известности в скором времени сможет потягаться со славой Риголетто-Паваротти. Его Герцог зрел, горд, и самоуверен. Открытое и легкое напевание Бекзалы обольстительно и коварно. Румынка по рождению, живущая в Швейцарии сопрано Елена Мошук - выразительная, приятная и невинная Гилда. Во время исполнения «Gualtier Malde, у Нома di lui si amato» Вы будете задерживать дыхание.
Катарина Пиц способствует значительной драматической точности заключительного акта. Ветеран сцены Нелло Санти - беспроигрышный выбор для Оркестра Цюрихского Оперного театра. Вы заслушаетесь прекрасным соло гобоя, присоединяющимся к Гилде в «Tutte le festa al tempio mentre pregava Iddio» в конце II акта, и высокими флейтами, сопровождающие её последние слова.
Доп. информация: Live recording from the Zurich Opera House 2006.
Бонус: Trailer
Либретто
Качество видео: Blu-ray
Формат/Контейнер: BDMV
Видео кодек: MPEG4
Аудио кодек: DTS, LPCM
Видео поток: MPEG-4 Video, 1920x1080, 16468 kbps, 29.970 fps
Аудио поток: DTS-HD MA, 2672 kbps, 48 kHz, 8 ch. LPCM, 1536 kbps, 48 kHz, 2 ch

BD-Info

DISC INFO:
Disc Title: Верди - Риголетто (Zurich Opera House) (2006) (Blu-ray 1080i, AVC, DTS-HD 7.1)
Disc Size: 22 108 460 952 bytes
Protection: AACS
BD-Java: No
BDInfo: 0.5.8
PLAYLIST REPORT:
Name: 00000.MPLS
Length: 2:08:04.309 (h:m:s.ms)
Size: 21 347 567 616 bytes
Total Bitrate: 22,22 Mbps
VIDEO:
Codec Bitrate Description
----- ------- -----------
MPEG-4 AVC Video 16468 kbps 1080i / 29,970 fps / 16:9 / High Profile 4.1
AUDIO:
Codec Language Bitrate Description
----- -------- ------- -----------
LPCM Audio Italian 1536 kbps 2.0 / 48 kHz / 1536 kbps / 16-bit
DTS-HD Master Audio Italian 2672 kbps 7.1 / 48 kHz / 2672 kbps / 16-bit (DTS Core: 5.1 / 48 kHz / 1509 kbps / 16-bit)
SUBTITLES:
Codec Language Bitrate Description
----- -------- ------- -----------
Presentation Graphics Italian 12,579 kbps
Presentation Graphics German 13,807 kbps
Presentation Graphics English 13,461 kbps
Presentation Graphics Spanish 12,799 kbps
Presentation Graphics French 13,143 kbps
FILES:
Name Time In Length Size Total Bitrate
---- ------- ------ ---- -------------
00000.M2TS 0:00:00.000 0:59:44.981 9 948 272 640 22 200
00001.M2TS 0:59:44.981 1:08:04.947 11 398 170 624 22 322
00003.M2TS 2:07:49.928 0:00:14.047 1 112 064 633
00002.M2TS 2:08:03.976 0:00:00.333 12 288 295
Семпл

Скриншоты


Скриншоты доп. материалов




Показать сообщения:    

Текущее время: 07-Дек 21:21

Часовой пояс: UTC + 3


Вы не можете начинать темы
Вы не можете отвечать на сообщения
Вы не можете редактировать свои сообщения
Вы не можете удалять свои сообщения
Вы не можете голосовать в опросах
Вы не можете прикреплять файлы к сообщениям
Вы не можете скачивать файлы